VERSION	0.00.00	1.03.00
FES_MODE	0
BPM_DEF	180.000	180.000	180.000	180.000
MET_DEF	4	4
RESOLUTION	384
CLK_DEF	384
COMPATIBLE_CODE	MA2

BPM	0	0	180.000

HLD	1	0	2	192
TAP	1	192	3
HLD	2	0	5	192
TAP	2	192	4
HLD	3	0	2	192
STR	3	192	3
SCL	3	192	3	96	192	6
BRK	4	288	0
HLD	5	0	5	192
TAP	5	96	4
HLD	5	192	2	192
TAP	5	288	3
HLD	6	0	5	192
TAP	6	96	4
TAP	6	192	3
BRK	6	288	2
BRK	6	288	5
HLD	7	0	6	192
TAP	7	96	7
HLD	7	192	1	192
TAP	7	288	0
TAP	8	0	2
TAP	8	96	3
TAP	8	192	4
BRK	8	288	1
BRK	8	288	6
HLD	9	0	2	96
HLD	9	0	3	96
HLD	9	192	3	96
HLD	9	192	4	96
TAP	10	0	5
TAP	10	48	5
TAP	10	96	4
TAP	10	192	2
TAP	10	192	7
HLD	11	0	4	96
HLD	11	0	5	96
HLD	11	192	3	96
HLD	11	192	4	96
TAP	12	0	2
TAP	12	48	2
TAP	12	96	3
TAP	12	192	0
TAP	12	192	5
HLD	13	0	1	96
HLD	13	0	3	96
HLD	13	192	3	96
HLD	13	192	5	96
TAP	14	0	6
TAP	14	48	6
TAP	14	96	4
TAP	14	192	2
TAP	14	192	7
HLD	15	0	4	96
HLD	15	0	6	96
HLD	15	192	2	96
HLD	15	192	4	96
TAP	16	0	1
TAP	16	48	1
TAP	16	96	3
BRK	16	192	0
BRK	16	192	5
HLD	17	0	2	48
HLD	17	0	3	48
HLD	17	96	3	48
HLD	17	96	4	48
TAP	17	192	4
TAP	17	192	5
TAP	17	288	2
TAP	17	288	7
HLD	18	0	4	48
HLD	18	0	5	48
HLD	18	96	3	48
HLD	18	96	4	48
TAP	18	192	2
TAP	18	192	3
TAP	18	288	0
TAP	18	288	5
HLD	19	0	1	48
HLD	19	0	3	48
HLD	19	96	3	48
HLD	19	96	4	48
TAP	19	192	4
TAP	19	192	6
TAP	19	288	0
TAP	19	288	2
HLD	20	0	4	48
HLD	20	0	6	48
HLD	20	96	3	48
HLD	20	96	4	48
TAP	20	192	1
TAP	20	192	3
BRK	20	240	0
BRK	20	288	0
HLD	21	0	6	48
HLD	21	0	7	48
HLD	21	96	0	48
HLD	21	96	7	48
TAP	21	192	0
TAP	21	192	1
TAP	21	288	3
TAP	21	288	6
HLD	22	0	0	48
HLD	22	0	1	48
HLD	22	96	0	48
HLD	22	96	7	48
TAP	22	192	6
TAP	22	192	7
TAP	22	288	1
TAP	22	288	4
HLD	23	0	5	48
HLD	23	0	7	48
HLD	23	96	0	48
HLD	23	96	7	48
TAP	23	192	0
TAP	23	192	2
TAP	23	288	3
TAP	23	288	6
HLD	24	0	0	48
HLD	24	0	2	48
HLD	24	96	0	48
HLD	24	96	7	48
TAP	24	192	5
TAP	24	192	7
TAP	24	288	1
TAP	24	288	3
TAP	25	0	2
TAP	25	0	4
TAP	25	96	1
TAP	25	96	7
TAP	25	192	2
TAP	25	192	4
TAP	25	288	1
TAP	25	288	7
TAP	26	0	2
TAP	26	0	4
STR	26	96	0
SI_	26	96	0	96	48	3
STR	26	96	7
SI_	26	96	7	96	48	4
TAP	26	288	0
TAP	26	288	7
TAP	27	0	2
TAP	27	0	4
TAP	27	96	1
TAP	27	96	7
TAP	27	192	2
TAP	27	192	4
TAP	27	288	1
TAP	27	288	7
TAP	28	0	2
TAP	28	0	4
STR	28	96	0
SI_	28	96	0	96	48	3
STR	28	96	7
SI_	28	96	7	96	48	4
TAP	28	288	0
TAP	28	288	7
TAP	29	0	4
TAP	29	0	5
TAP	29	96	0
TAP	29	96	7
TAP	29	192	4
TAP	29	192	5
TAP	29	288	0
TAP	29	288	7
TAP	30	0	4
TAP	30	0	5
STR	30	96	0
SUL	30	96	0	96	48	3
STR	30	96	7
SCL	30	96	7	96	48	4
TAP	30	288	0
TAP	30	288	7
TAP	31	0	2
TAP	31	0	3
TAP	31	96	0
TAP	31	96	7
TAP	31	192	2
TAP	31	192	3
TAP	31	288	0
TAP	31	288	7
TAP	32	0	2
TAP	32	0	3
STR	32	96	0
SCR	32	96	0	96	48	3
STR	32	96	7
SUR	32	96	7	96	48	4
TAP	32	288	0
TAP	32	288	7
TAP	33	0	3
TAP	33	0	4
TAP	33	96	1
TAP	33	96	6
STR	33	192	0
SCR	33	192	0	96	48	2
STR	33	192	7
SCL	33	192	7	96	48	5
STR	34	0	3
SI_	34	0	3	96	48	1
STR	34	0	4
SI_	34	0	4	96	48	6
BRK	34	192	0
BRK	34	192	7
HLD	35	0	5	96
HLD	35	96	6	96
HLD	35	192	7	96
TAP	35	288	0
STR	36	0	0
SI_	36	0	0	96	48	2
STR	36	0	7
SI_	36	0	7	96	48	5
BRK	36	192	1
BRK	36	192	4
HLD	37	0	4	576
TAP	37	0	5
TAP	37	96	6
TAP	37	192	7
TAP	37	288	0
TAP	38	0	1
TAP	38	96	2
TAP	38	192	3
BRK	38	288	1
BRK	38	288	6
HLD	39	0	0	96
HLD	39	96	6	96
HLD	39	192	4	96
TAP	39	288	2
STR	40	0	0
SI_	40	0	0	96	48	4
BRK	40	192	2
BRK	40	192	6
STR	41	0	5
SCR	41	0	5	96	192	1
STR	42	0	1
SXL	42	0	1	96	192	2
STR	43	0	2
SCL	43	0	2	96	192	5
TAP	44	0	3
TAP	44	0	4
STR	44	96	0
SCR	44	96	0	96	96	3
STR	44	96	7
SCL	44	96	7	96	96	4
HLD	45	0	2	192
HLD	45	192	0	96
HLD	45	288	7	192
HLD	46	96	5	288
HLD	47	0	3	384
STR	48	0	4
SI_	48	0	4	96	48	7
BRK	48	192	1
BRK	48	192	6
HLD	49	0	1	288
TAP	49	96	2
TAP	49	192	3
HLD	49	288	4	96
HLD	50	0	2	288
TAP	50	96	3
TAP	50	192	4
TAP	50	288	5
STR	51	0	6
SSL	51	0	6	96	216	2
STR	52	0	0
SUR	52	0	0	96	144	6
STR	52	0	1
SCR	52	0	1	96	144	5
HLD	53	0	6	288
TAP	53	192	7
TAP	53	288	0
HLD	54	0	1	288
TAP	54	192	0
TAP	54	288	7
STR	55	0	1
SCR	55	0	1	96	192	6
STR	56	0	1
SLL	56	0	1	96	192	3
STR	56	0	5
SLR	56	0	5	96	192	3
HLD	57	0	0	96
HLD	57	0	1	96
HLD	57	192	1	96
HLD	57	192	5	96
TAP	58	0	0
TAP	58	48	6
TAP	58	96	4
BRK	58	192	1
BRK	58	192	7
HLD	59	0	1	96
HLD	59	0	3	96
HLD	59	192	4	96
HLD	59	192	6	96
TAP	60	0	0
TAP	60	48	7
TAP	60	96	0
BRK	60	192	2
BRK	60	192	5
HLD	61	0	5	96
HLD	61	0	6	96
HLD	61	192	1	96
HLD	61	192	4	96
TAP	62	0	7
TAP	62	48	2
TAP	62	96	5
BRK	62	192	0
BRK	62	192	6
HLD	63	0	0	96
HLD	63	0	2	96
HLD	63	192	5	96
HLD	63	192	7	96
TAP	64	0	4
TAP	64	48	3
TAP	64	96	4
BRK	64	192	1
BRK	64	192	6
HLD	65	0	1	48
HLD	65	0	3	48
HLD	65	96	3	48
HLD	65	96	4	48
TAP	65	192	4
TAP	65	192	6
TAP	65	288	2
TAP	65	288	7
HLD	66	0	4	48
HLD	66	0	6	48
HLD	66	96	3	48
HLD	66	96	4	48
TAP	66	192	1
TAP	66	192	3
TAP	66	288	0
TAP	66	288	5
HLD	67	0	1	48
HLD	67	0	3	48
HLD	67	96	4	48
HLD	67	96	5	48
TAP	67	192	4
TAP	67	192	6
TAP	67	288	0
TAP	67	288	1
HLD	68	0	4	48
HLD	68	0	6	48
HLD	68	96	2	48
HLD	68	96	3	48
TAP	68	192	1
TAP	68	192	3
BRK	68	240	0
BRK	68	288	0
HLD	69	0	5	48
HLD	69	0	7	48
HLD	69	96	0	48
HLD	69	96	7	48
TAP	69	192	0
TAP	69	192	1
TAP	69	288	3
TAP	69	288	6
HLD	70	0	0	48
HLD	70	0	2	48
HLD	70	96	0	48
HLD	70	96	7	48
TAP	70	192	6
TAP	70	192	7
TAP	70	288	1
TAP	70	288	4
HLD	71	0	5	48
HLD	71	0	7	48
HLD	71	96	0	48
HLD	71	96	7	48
TAP	71	192	0
TAP	71	192	1
TAP	71	288	3
TAP	71	288	5
STR	72	0	6
SUL	72	0	6	96	120	1
TAP	72	288	0
TAP	72	288	7
TAP	73	0	2
TAP	73	0	4
TAP	73	96	1
TAP	73	96	7
TAP	73	192	2
TAP	73	192	4
TAP	73	288	1
TAP	73	288	7
TAP	74	0	2
TAP	74	0	4
STR	74	96	0
SV_	74	96	0	96	48	3
STR	74	96	7
SV_	74	96	7	96	48	4
TAP	74	288	0
TAP	74	288	7
TAP	75	0	3
TAP	75	0	4
TAP	75	96	6
TAP	75	96	7
TAP	75	192	3
TAP	75	192	4
TAP	75	288	6
TAP	75	288	7
TAP	76	0	3
TAP	76	0	4
STR	76	96	6
SCL	76	96	6	96	48	3
STR	76	96	7
SUL	76	96	7	96	48	2
TAP	76	288	6
TAP	76	288	7
STR	77	0	0
SI_	77	0	0	96	48	2
TAP	77	0	7
STR	77	192	0
SI_	77	192	0	96	48	2
TAP	77	192	7
BRK	78	0	3
BRK	78	0	6
BRK	78	96	4
BRK	78	96	6
BRK	78	192	5
BRK	78	192	6
BRK	78	288	4
BRK	78	288	7
HLD	79	0	0	96
TAP	79	96	5
HLD	79	192	7	96
TAP	79	288	2
BST	80	0	4
SUR	80	0	4	96	96	1
BRK	80	288	0
BST	81	0	5
SUR	81	0	5	96	96	1
BRK	81	288	0
BST	82	0	6
SI_	82	0	6	96	96	1
BRK	82	288	0
HLD	83	0	6	96
TAP	83	96	7
HLD	83	192	1	96
TAP	83	288	0
TAP	84	0	5
TAP	84	48	5
TAP	84	96	4
TAP	84	192	3
TAP	84	192	6
TAP	84	288	0
TAP	84	288	1
TAP	85	0	0
STR	85	0	7
SI_	85	0	7	96	48	5
TAP	85	192	0
STR	85	192	7
SI_	85	192	7	96	48	5
BRK	86	0	0
BRK	86	0	7
BRK	86	48	0
BRK	86	48	7
BRK	86	96	0
BRK	86	96	7
BRK	86	144	0
BRK	86	144	7
BRK	86	192	0
BRK	86	192	7
BRK	86	288	0
BRK	86	288	7
STR	87	0	0
SI_	87	0	0	96	48	2
TAP	87	0	7
STR	87	192	0
SI_	87	192	0	96	48	2
TAP	87	192	7
TAP	88	0	6
TAP	88	0	7
STR	88	96	0
SI_	88	96	0	96	96	5
STR	88	96	1
SI_	88	96	1	96	96	4
HLD	89	0	2	48
HLD	89	0	3	48
HLD	89	96	3	48
HLD	89	96	4	48
TAP	89	192	4
TAP	89	192	5
TAP	89	288	2
TAP	89	288	7
HLD	90	0	4	48
HLD	90	0	5	48
HLD	90	96	3	48
HLD	90	96	4	48
TAP	90	192	2
TAP	90	192	3
TAP	90	288	0
TAP	90	288	5
HLD	91	0	1	48
HLD	91	0	3	48
HLD	91	96	3	48
HLD	91	96	4	48
TAP	91	192	4
TAP	91	192	6
TAP	91	288	2
TAP	91	288	7
HLD	92	0	4	48
HLD	92	0	6	48
HLD	92	96	3	48
HLD	92	96	4	48
TAP	92	192	1
TAP	92	192	3
TAP	92	288	0
TAP	92	288	5
HLD	93	0	5	48
HLD	93	0	6	48
HLD	93	96	3	48
HLD	93	96	4	48
HLD	93	192	1	48
HLD	93	192	2	48
BRK	93	288	0
HLD	94	0	1	48
HLD	94	0	2	48
HLD	94	96	3	48
HLD	94	96	4	48
HLD	94	192	5	48
HLD	94	192	6	48
BRK	94	288	7
HLD	95	0	4	48
HLD	95	0	5	48
HLD	95	96	2	48
HLD	95	96	3	48
HLD	95	192	0	48
HLD	95	192	1	48
BRK	95	288	6
BRK	95	288	7
HLD	96	0	0	48
HLD	96	0	5	48
HLD	96	96	1	48
HLD	96	96	4	48
HLD	96	192	2	48
HLD	96	192	3	48
BST	96	288	0
SF_	96	288	0	96	192	4

T_REC_TAP	230
T_REC_BRK	56
T_REC_XTP	0
T_REC_HLD	161
T_REC_XHO	0
T_REC_STR	41
T_REC_BST	4
T_REC_XST	0
T_REC_TTP	0
T_REC_THO	0
T_REC_SLD	45
T_REC_ALL	537
T_NUM_TAP	271
T_NUM_BRK	60
T_NUM_HLD	161
T_NUM_SLD	45
T_NUM_ALL	537
T_JUDGE_TAP	331
T_JUDGE_HLD	278
T_JUDGE_SLD	45
T_JUDGE_ALL	654
TTM_EACHPAIRS	191
TTM_SCR_TAP	135500
TTM_SCR_BRK	156000
TTM_SCR_HLD	161000
TTM_SCR_SLD	67500
TTM_SCR_ALL	520000
TTM_SCR_S	498600
TTM_SCR_SS	514000
TTM_RAT_ACV	10116

