VERSION	0.00.00	1.03.00
FES_MODE	0
BPM_DEF	180.000	180.000	180.000	180.000
MET_DEF	4	4
RESOLUTION	384
CLK_DEF	384
COMPATIBLE_CODE	MA2

BPM	0	0	180.000

TAP	1	0	2
TAP	1	192	2
TAP	1	192	3
TAP	2	0	2
TAP	2	96	2
TAP	2	192	2
TAP	2	192	3
TAP	3	0	5
TAP	3	192	4
TAP	3	192	5
TAP	4	0	5
TAP	4	96	5
TAP	4	192	4
TAP	4	192	5
TAP	5	0	6
TAP	5	192	6
TAP	5	192	7
TAP	6	0	6
TAP	6	96	6
TAP	6	192	6
TAP	6	192	7
TAP	7	0	1
TAP	7	192	0
TAP	7	192	1
TAP	8	0	1
TAP	8	96	1
TAP	8	192	0
TAP	8	192	1
HLD	9	0	2	96
HLD	9	0	3	96
HLD	9	192	4	96
HLD	9	192	5	96
TAP	10	0	3
TAP	10	0	4
TAP	10	96	3
TAP	10	96	4
TAP	10	192	2
TAP	10	192	5
HLD	11	0	4	96
HLD	11	0	5	96
HLD	11	192	2	96
HLD	11	192	3	96
TAP	12	0	3
TAP	12	0	4
TAP	12	96	3
TAP	12	96	4
TAP	12	192	2
TAP	12	192	5
HLD	13	0	6	96
HLD	13	0	7	96
HLD	13	192	0	96
HLD	13	192	1	96
TAP	14	0	0
TAP	14	0	7
TAP	14	96	0
TAP	14	96	7
TAP	14	192	1
TAP	14	192	6
HLD	15	0	0	96
HLD	15	0	1	96
HLD	15	192	6	96
HLD	15	192	7	96
TAP	16	0	0
TAP	16	0	7
TAP	16	96	0
TAP	16	96	7
TAP	16	192	1
TAP	16	192	6
TAP	17	0	5
TAP	17	96	4
HLD	17	192	2	96
HLD	17	192	3	96
TAP	18	0	2
TAP	18	96	3
HLD	18	192	4	96
HLD	18	192	5	96
TAP	19	0	6
TAP	19	96	7
HLD	19	192	0	96
HLD	19	192	1	96
TAP	20	0	1
TAP	20	96	0
HLD	20	192	6	96
HLD	20	192	7	96
TAP	21	0	5
TAP	21	96	4
HLD	21	192	3	96
TAP	21	288	4
TAP	22	0	2
TAP	22	96	3
HLD	22	192	4	96
TAP	22	288	3
TAP	23	0	6
TAP	23	96	7
HLD	23	192	0	96
TAP	23	288	7
TAP	24	0	1
TAP	24	96	0
HLD	24	192	7	96
TAP	24	288	0
STR	25	0	0
SCR	25	0	0	96	192	3
TAP	26	0	4
TAP	26	96	5
TAP	26	192	4
TAP	26	192	5
STR	27	0	4
SCR	27	0	4	96	192	7
TAP	28	0	0
TAP	28	96	1
TAP	28	192	0
TAP	28	192	1
STR	29	0	2
SI_	29	0	2	96	192	7
STR	29	0	3
SI_	29	0	3	96	192	6
HLD	30	0	6	96
TAP	30	96	7
TAP	30	192	0
TAP	30	192	5
STR	31	0	4
SI_	31	0	4	96	192	1
STR	31	0	5
SI_	31	0	5	96	192	0
HLD	32	0	1	96
TAP	32	96	0
TAP	32	192	2
TAP	32	192	7
TAP	33	0	2
TAP	33	96	1
TAP	33	192	0
TAP	33	288	7
TAP	34	0	6
TAP	34	96	5
BRK	34	192	3
BRK	34	192	4
TAP	35	0	5
TAP	35	96	6
TAP	35	192	7
TAP	35	288	0
TAP	36	0	1
TAP	36	96	2
BRK	36	192	3
BRK	36	192	4
TAP	37	0	1
TAP	37	96	2
TAP	37	192	3
TAP	37	288	4
TAP	38	0	5
TAP	38	96	6
BRK	38	192	0
BRK	38	192	7
TAP	39	0	6
TAP	39	96	5
TAP	39	192	4
TAP	39	288	3
TAP	40	0	2
TAP	40	96	1
BRK	40	192	0
BRK	40	192	7
HLD	41	0	5	384
HLD	42	0	4	384
HLD	43	0	3	384
TAP	44	0	2
TAP	44	96	2
TAP	44	192	2
TAP	44	192	3
HLD	45	0	2	384
HLD	46	0	3	384
HLD	47	0	4	384
TAP	48	0	5
TAP	48	96	5
TAP	48	192	4
TAP	48	192	5
TAP	49	0	3
TAP	49	96	3
TAP	49	192	2
TAP	49	288	2
TAP	50	0	1
TAP	50	96	1
TAP	50	192	0
TAP	50	192	7
TAP	51	0	7
TAP	51	96	7
TAP	51	192	6
TAP	51	288	6
TAP	52	0	5
TAP	52	96	5
TAP	52	192	3
TAP	52	192	4
TAP	53	0	2
TAP	53	0	3
TAP	53	96	2
TAP	53	96	3
TAP	53	192	2
TAP	53	192	3
TAP	54	0	4
TAP	54	0	5
TAP	54	96	4
TAP	54	96	5
TAP	54	192	4
TAP	54	192	5
TAP	55	0	3
TAP	55	0	4
TAP	55	96	3
TAP	55	96	4
TAP	55	192	2
TAP	55	192	5
TAP	55	288	2
TAP	55	288	5
BRK	56	0	1
BRK	56	0	6
HLD	57	0	0	96
HLD	57	0	1	96
HLD	57	192	6	96
HLD	57	192	7	96
TAP	58	0	0
TAP	58	48	0
TAP	58	96	0
BRK	58	192	1
BRK	58	192	6
HLD	59	0	4	96
HLD	59	0	5	96
HLD	59	192	2	96
HLD	59	192	3	96
TAP	60	0	4
TAP	60	48	4
TAP	60	96	4
BRK	60	192	2
BRK	60	192	5
HLD	61	0	6	96
HLD	61	0	7	96
HLD	61	192	0	96
HLD	61	192	1	96
TAP	62	0	7
TAP	62	48	7
TAP	62	96	7
BRK	62	192	1
BRK	62	192	6
HLD	63	0	2	96
HLD	63	0	3	96
HLD	63	192	4	96
HLD	63	192	5	96
TAP	64	0	3
TAP	64	48	3
TAP	64	96	3
BRK	64	192	2
BRK	64	192	5
TAP	65	0	0
TAP	65	0	1
TAP	65	96	6
TAP	65	96	7
HLD	65	192	0	96
TAP	65	288	7
TAP	66	0	2
TAP	66	0	3
TAP	66	96	4
TAP	66	96	5
HLD	66	192	3	96
TAP	66	288	4
TAP	67	0	6
TAP	67	0	7
TAP	67	96	0
TAP	67	96	1
HLD	67	192	7	96
TAP	67	288	0
TAP	68	0	4
TAP	68	0	5
TAP	68	96	2
TAP	68	96	3
HLD	68	192	4	96
TAP	68	288	3
TAP	69	0	2
TAP	69	0	3
TAP	69	96	0
TAP	69	96	1
HLD	69	192	2	96
TAP	69	288	3
TAP	70	0	4
TAP	70	0	5
TAP	70	96	6
TAP	70	96	7
HLD	70	192	5	96
TAP	70	288	4
TAP	71	0	3
TAP	71	0	4
TAP	71	96	2
TAP	71	96	5
HLD	71	192	3	96
TAP	71	288	4
STR	72	0	5
SCR	72	0	5	96	192	0
STR	73	0	1
SCR	73	0	1	96	192	4
TAP	74	0	5
TAP	74	96	6
TAP	74	192	0
TAP	74	192	7
STR	75	0	2
SCL	75	0	2	96	192	7
TAP	76	0	6
TAP	76	96	5
TAP	76	192	3
TAP	76	192	4
STR	77	0	4
SI_	77	0	4	96	192	1
STR	77	0	5
SI_	77	0	5	96	192	0
HLD	78	0	1	96
TAP	78	96	0
TAP	78	192	2
TAP	78	192	7
STR	79	0	6
SI_	79	0	6	96	192	3
STR	79	0	7
SI_	79	0	7	96	192	2
HLD	80	0	2	96
TAP	80	96	3
TAP	80	192	1
TAP	80	192	4
STR	81	0	3
SXR	81	0	3	96	576	0
STR	81	0	4
SXL	81	0	4	96	576	7
STR	83	0	0
SXL	83	0	0	96	576	3
STR	83	0	7
SXR	83	0	7	96	576	4
HLD	85	0	2	96
TAP	85	96	3
HLD	85	192	2	96
TAP	85	288	3
STR	86	0	4
SI_	86	0	4	96	192	7
HLD	87	0	1	96
TAP	87	96	0
HLD	87	192	1	96
TAP	87	288	0
STR	88	0	7
SI_	88	0	7	96	192	4
TAP	89	0	2
TAP	89	96	3
HLD	89	192	4	96
TAP	89	288	3
TAP	90	0	5
TAP	90	96	4
HLD	90	192	3	96
TAP	90	288	4
TAP	91	0	1
TAP	91	96	0
HLD	91	192	7	96
TAP	91	288	0
TAP	92	0	6
TAP	92	96	7
HLD	92	192	0	96
TAP	92	288	7
TAP	93	0	0
TAP	93	0	1
TAP	93	96	6
TAP	93	96	7
BRK	93	192	0
BRK	93	192	7
BRK	93	288	1
BRK	93	288	6
TAP	94	0	2
TAP	94	0	3
TAP	94	96	4
TAP	94	96	5
BRK	94	192	3
BRK	94	192	4
BRK	94	288	2
BRK	94	288	5
TAP	95	0	3
TAP	95	0	4
TAP	95	96	3
TAP	95	96	4
BRK	95	192	2
BRK	95	192	5
BRK	95	288	1
BRK	95	288	6
TAP	96	0	0
TAP	96	0	7
TAP	96	96	0
TAP	96	96	7
TAP	96	192	0
TAP	96	192	7
BRK	96	288	1
BRK	96	288	6

T_REC_TAP	249
T_REC_BRK	32
T_REC_XTP	0
T_REC_HLD	69
T_REC_XHO	0
T_REC_STR	19
T_REC_BST	0
T_REC_XST	0
T_REC_TTP	0
T_REC_THO	0
T_REC_SLD	19
T_REC_ALL	388
T_NUM_TAP	268
T_NUM_BRK	32
T_NUM_HLD	69
T_NUM_SLD	19
T_NUM_ALL	388
T_JUDGE_TAP	300
T_JUDGE_HLD	174
T_JUDGE_SLD	19
T_JUDGE_ALL	493
TTM_EACHPAIRS	107
TTM_SCR_TAP	134000
TTM_SCR_BRK	83200
TTM_SCR_HLD	69000
TTM_SCR_SLD	28500
TTM_SCR_ALL	314700
TTM_SCR_S	302200
TTM_SCR_SS	311500
TTM_RAT_ACV	10102

