VERSION	0.00.00	1.03.00
FES_MODE	0
BPM_DEF	180.000	180.000	180.000	180.000
MET_DEF	4	4
RESOLUTION	384
CLK_DEF	384
COMPATIBLE_CODE	MA2

BPM	0	0	180.000

TAP	5	0	3
TAP	5	192	3
TAP	6	0	3
TAP	6	192	3
TAP	7	0	4
TAP	7	192	4
TAP	8	0	4
TAP	8	192	4
HLD	9	0	3	192
HLD	9	0	4	192
TAP	10	0	3
TAP	10	96	4
TAP	10	192	3
HLD	11	0	3	192
HLD	11	0	4	192
TAP	12	0	4
TAP	12	96	3
TAP	12	192	4
HLD	13	0	3	192
HLD	13	0	4	192
TAP	14	0	2
TAP	14	96	3
TAP	14	192	2
HLD	15	0	3	192
HLD	15	0	4	192
TAP	16	0	5
TAP	16	96	4
TAP	16	192	5
HLD	17	0	2	96
HLD	17	0	3	96
TAP	17	192	2
TAP	17	192	3
HLD	18	0	3	96
HLD	18	0	4	96
TAP	18	192	3
TAP	18	192	4
HLD	19	0	4	96
HLD	19	0	5	96
TAP	19	192	4
TAP	19	192	5
HLD	20	0	3	96
HLD	20	0	4	96
TAP	20	192	3
TAP	20	192	4
HLD	21	0	2	96
HLD	21	0	4	96
TAP	21	192	2
TAP	21	192	4
HLD	22	0	3	96
HLD	22	0	5	96
TAP	22	192	3
TAP	22	192	5
HLD	23	0	3	96
HLD	23	0	4	96
TAP	23	192	2
TAP	23	192	5
HLD	24	0	2	96
HLD	24	0	5	96
TAP	24	192	3
TAP	24	192	4
TAP	25	0	3
TAP	25	192	3
TAP	26	0	2
TAP	26	96	2
TAP	26	192	2
TAP	27	0	1
TAP	27	192	1
TAP	28	0	0
TAP	28	96	0
TAP	28	192	0
TAP	29	0	7
TAP	29	192	7
TAP	30	0	6
TAP	30	96	6
TAP	30	192	6
TAP	31	0	5
TAP	31	192	5
TAP	32	0	4
TAP	32	96	4
TAP	32	192	4
TAP	33	0	3
TAP	33	96	3
TAP	33	192	3
TAP	34	0	4
TAP	34	96	4
TAP	34	192	3
TAP	34	192	4
TAP	35	0	5
TAP	35	96	5
TAP	35	192	5
TAP	36	0	6
TAP	36	96	6
TAP	36	192	6
TAP	36	192	7
TAP	37	0	7
TAP	37	96	7
TAP	37	192	7
TAP	38	0	0
TAP	38	96	0
TAP	38	192	0
TAP	38	192	7
TAP	39	0	1
TAP	39	96	1
TAP	39	192	1
TAP	40	0	2
TAP	40	96	2
TAP	40	192	2
TAP	40	192	3
STR	41	0	4
SI_	41	0	4	96	288	7
HLD	43	0	0	384
STR	45	0	0
SI_	45	0	0	96	288	3
HLD	47	0	4	384
STR	49	0	5
SI_	49	0	5	96	288	2
HLD	51	0	1	384
STR	53	0	1
SI_	53	0	1	96	288	6
HLD	55	0	0	384
HLD	55	0	7	384
HLD	57	0	0	192
HLD	57	0	7	192
TAP	58	0	0
TAP	58	96	7
TAP	58	192	0
HLD	59	0	0	192
HLD	59	0	7	192
TAP	60	0	7
TAP	60	96	0
TAP	60	192	7
HLD	61	0	0	192
HLD	61	0	7	192
TAP	62	0	1
TAP	62	96	0
TAP	62	192	1
HLD	63	0	0	192
HLD	63	0	7	192
TAP	64	0	6
TAP	64	96	7
TAP	64	192	6
HLD	65	0	0	96
HLD	65	0	1	96
TAP	65	192	0
TAP	65	192	1
HLD	66	0	0	96
HLD	66	0	7	96
TAP	66	192	0
TAP	66	192	7
HLD	67	0	6	96
HLD	67	0	7	96
TAP	67	192	6
TAP	67	192	7
HLD	68	0	0	96
HLD	68	0	7	96
TAP	68	192	0
TAP	68	192	7
HLD	69	0	1	96
HLD	69	0	7	96
TAP	69	192	1
TAP	69	192	7
HLD	70	0	0	96
HLD	70	0	6	96
TAP	70	192	0
TAP	70	192	6
HLD	71	0	0	96
HLD	71	0	7	96
TAP	71	192	1
TAP	71	192	6
BRK	72	0	0
BRK	72	0	7
TAP	73	0	0
TAP	73	192	0
HLD	74	0	0	96
TAP	74	192	0
TAP	75	0	1
TAP	75	192	1
HLD	76	0	1	96
TAP	76	192	1
TAP	77	0	2
TAP	77	192	2
HLD	78	0	2	96
TAP	78	192	2
TAP	79	0	3
TAP	79	192	3
HLD	80	0	3	96
TAP	80	192	3
TAP	80	192	4
HLD	81	0	5	96
HLD	81	192	4	96
TAP	82	0	3
TAP	82	96	4
TAP	82	192	3
HLD	83	0	2	96
HLD	83	192	3	96
TAP	84	0	4
TAP	84	96	3
TAP	84	192	4
HLD	85	0	4	96
HLD	85	192	4	96
TAP	86	0	4
TAP	86	96	4
TAP	86	192	4
HLD	87	0	5	96
HLD	87	192	5	96
TAP	88	0	5
TAP	88	96	5
TAP	88	192	5
HLD	89	0	6	96
HLD	89	0	7	96
TAP	89	192	6
TAP	89	192	7
HLD	90	0	0	96
HLD	90	0	1	96
TAP	90	192	0
TAP	90	192	1
HLD	91	0	1	96
HLD	91	0	7	96
TAP	91	192	1
TAP	91	192	7
HLD	92	0	0	96
HLD	92	0	6	96
TAP	92	192	0
TAP	92	192	6
HLD	93	0	0	96
HLD	93	0	7	96
TAP	93	192	0
TAP	93	192	7
HLD	94	0	1	96
HLD	94	0	6	96
TAP	94	192	1
TAP	94	192	6
HLD	95	0	2	96
HLD	95	0	5	96
TAP	95	192	2
TAP	95	192	5
HLD	96	0	3	96
HLD	96	0	4	96
BRK	96	192	3
BRK	96	192	4

T_REC_TAP	149
T_REC_BRK	4
T_REC_XTP	0
T_REC_HLD	79
T_REC_XHO	0
T_REC_STR	4
T_REC_BST	0
T_REC_XST	0
T_REC_TTP	0
T_REC_THO	0
T_REC_SLD	4
T_REC_ALL	240
T_NUM_TAP	153
T_NUM_BRK	4
T_NUM_HLD	79
T_NUM_SLD	4
T_NUM_ALL	240
T_JUDGE_TAP	157
T_JUDGE_HLD	220
T_JUDGE_SLD	4
T_JUDGE_ALL	381
TTM_EACHPAIRS	61
TTM_SCR_TAP	76500
TTM_SCR_BRK	10400
TTM_SCR_HLD	79000
TTM_SCR_SLD	6000
TTM_SCR_ALL	171900
TTM_SCR_S	166400
TTM_SCR_SS	171500
TTM_RAT_ACV	10023

