VERSION	0.00.00	1.03.00
FES_MODE	0
BPM_DEF	216.000	216.000	216.000	216.000
MET_DEF	4	4
RESOLUTION	384
CLK_DEF	384
COMPATIBLE_CODE	MA2

BPM	0	0	216.000

TAP	2	0	5
TAP	2	96	5
TAP	2	144	3
STR	2	144	6
SCL	2	144	6	96	24	4
TAP	2	240	2
TAP	2	288	2
TAP	3	0	2
TAP	3	96	2
STR	3	144	1
SCR	3	144	1	96	24	3
TAP	3	144	4
TAP	3	240	5
TAP	3	288	5
TAP	4	0	5
TAP	4	48	5
TAP	4	96	4
TAP	4	96	6
TAP	4	192	2
TAP	4	240	2
TAP	4	288	1
TAP	4	288	3
TAP	5	0	5
TAP	5	48	5
TAP	5	96	2
TAP	5	144	2
BRK	5	240	4
BST	5	288	5
SXL	5	288	5	96	240	0
STR	6	48	4
SI_	6	48	4	96	96	1
TAP	7	0	3
TAP	7	96	3
TAP	7	144	2
STR	7	144	4
SCR	7	144	4	96	96	7
TAP	8	0	2
TAP	8	48	2
TAP	8	96	1
TAP	8	96	3
TAP	8	192	5
TAP	8	240	5
TAP	8	288	4
TAP	8	288	6
TAP	9	0	0
TAP	9	48	0
TAP	9	96	0
STR	9	96	7
SI_	9	96	7	96	48	3
BST	9	192	0
SI_	9	192	0	96	48	4
BRK	9	192	7
BRK	9	288	0
TAP	10	0	2
STR	10	0	6
SUL	10	0	6	96	96	1
TAP	10	192	7
STR	11	0	1
SUR	11	0	1	96	96	6
TAP	11	0	5
TAP	11	192	0
STR	12	0	0
SCL	12	0	0	96	144	4
STR	12	0	7
SCR	12	0	7	96	144	3
TAP	13	0	1
STR	13	0	4
SUL	13	0	4	96	96	7
TAP	13	96	1
TAP	13	192	2
TAP	14	0	3
STR	14	0	7
SUR	14	0	7	96	96	4
TAP	14	96	2
TAP	14	192	1
TAP	14	288	0
STR	15	0	0
SUL	15	0	0	96	96	3
TAP	15	0	4
TAP	15	96	5
TAP	15	192	6
TAP	15	288	7
TAP	16	0	0
TAP	16	48	0
TAP	16	96	7
TAP	16	144	7
TAP	16	192	1
TAP	16	240	1
TAP	16	288	6
TAP	16	336	6
TAP	17	0	2
TAP	17	24	3
TAP	17	48	2
TAP	17	96	5
TAP	17	120	4
TAP	17	144	5
TAP	17	192	3
BRK	17	240	6
BRK	17	288	6
TAP	18	0	0
TAP	18	0	7
TAP	18	48	6
TAP	18	72	7
STR	18	96	6
SI_	18	96	6	96	48	3
TAP	18	144	0
BRK	18	240	2
BRK	18	288	2
TAP	19	0	0
TAP	19	0	7
TAP	19	48	1
TAP	19	72	0
STR	19	96	1
SI_	19	96	1	96	48	4
TAP	19	144	7
BRK	19	240	5
BRK	19	288	5
TAP	20	0	0
TAP	20	0	7
TAP	20	48	6
TAP	20	72	7
STR	20	96	6
SI_	20	96	6	96	48	3
TAP	20	144	0
BRK	20	240	2
BRK	20	288	2
TAP	21	0	0
TAP	21	0	1
TAP	21	96	6
STR	21	96	7
SUR	21	96	7	96	96	4
HLD	21	192	5	96
TAP	22	0	3
TAP	22	0	4
TAP	22	48	2
TAP	22	72	3
STR	22	96	2
SI_	22	96	2	96	48	7
TAP	22	144	4
BRK	22	240	6
BRK	22	288	6
TAP	23	0	3
TAP	23	0	4
TAP	23	48	5
TAP	23	72	4
STR	23	96	5
SI_	23	96	5	96	48	0
TAP	23	144	3
BRK	23	240	1
BRK	23	288	1
TAP	24	0	3
TAP	24	0	4
TAP	24	48	2
TAP	24	72	3
STR	24	96	2
SI_	24	96	2	96	48	7
TAP	24	144	4
BRK	24	240	6
BRK	24	288	6
TAP	25	0	7
TAP	25	24	0
TAP	25	48	7
STR	25	96	1
SXL	25	96	1	96	48	3
STR	25	96	6
SXR	25	96	6	96	48	4
TAP	25	192	1
TAP	25	192	6
BRK	25	288	7
TAP	26	0	0
TAP	26	0	7
TAP	26	48	1
TAP	26	72	0
STR	26	96	1
SCR	26	96	1	96	48	4
HLD	26	144	7	96
BRK	26	288	7
TAP	27	0	0
TAP	27	0	7
TAP	27	48	6
TAP	27	72	7
STR	27	96	6
SCL	27	96	6	96	48	3
HLD	27	144	0	96
BRK	27	288	0
TAP	28	0	0
TAP	28	0	7
TAP	28	48	1
TAP	28	72	0
STR	28	96	1
SCR	28	96	1	96	48	4
HLD	28	144	7	96
BRK	28	288	7
TAP	29	0	3
TAP	29	0	4
STR	29	96	0
SI_	29	96	0	96	24	2
STR	29	96	7
SI_	29	96	7	96	24	5
TAP	29	192	0
TAP	29	192	7
TAP	29	288	3
TAP	29	288	4
TAP	30	0	3
TAP	30	0	4
TAP	30	48	5
TAP	30	72	4
STR	30	96	5
SCR	30	96	5	96	48	0
HLD	30	144	2	96
BRK	30	288	2
TAP	31	0	3
TAP	31	0	4
TAP	31	48	2
TAP	31	72	3
STR	31	96	2
SCL	31	96	2	96	48	7
HLD	31	144	5	96
BRK	31	288	5
TAP	32	0	1
TAP	32	0	7
TAP	32	72	0
TAP	32	72	6
TAP	32	144	2
TAP	32	144	4
TAP	32	216	3
TAP	32	216	5
BRK	32	288	3
BRK	32	288	4
TAP	33	0	3
TAP	33	0	4
TAP	33	48	2
TAP	33	48	5
TAP	33	96	1
TAP	33	96	6
BST	33	144	0
SI_	33	144	0	96	48	3
BST	33	144	7
SI_	33	144	7	96	48	4
HLD	34	0	2	96
HLD	34	0	5	96
TAP	34	192	3
TAP	34	240	3
TAP	34	288	3
STR	35	0	0
SI_	35	0	0	96	24	2
STR	35	0	7
SI_	35	0	7	96	24	5
TAP	35	96	0
TAP	35	96	7
BRK	35	192	0
BRK	35	192	1
STR	35	288	7
SLR	35	288	7	96	96	5
STR	36	0	5
SV_	36	0	5	96	96	3
TAP	36	96	3
BRK	36	192	4
STR	36	288	0
SI_	36	288	0	96	48	3
STR	36	288	5
SCL	36	288	5	96	48	3
TAP	37	0	0
TAP	37	0	5
STR	37	96	0
SV_	37	96	0	96	48	3
STR	37	96	7
SI_	37	96	7	96	48	4
TAP	37	192	0
TAP	37	192	7
TAP	37	288	1
TAP	37	288	6
HLD	38	0	6	96
HLD	38	96	4	96
HLD	38	192	3	96
HLD	38	288	1	96
BRK	39	0	0
TAP	39	96	3
TAP	39	192	4
HLD	39	288	2	48
HLD	40	0	2	48
BRK	40	96	2
HLD	40	192	4	96
HLD	40	288	6	96
TAP	41	0	4
TAP	41	96	3
TAP	41	192	1
BRK	41	288	0
TAP	42	0	2
TAP	42	0	5
TAP	42	96	1
TAP	42	192	2
TAP	42	192	3
STR	42	288	5
SI_	42	288	5	96	48	2
TAP	43	0	1
BST	43	96	0
SV_	43	96	0	96	48	3
SV_	43	96	0	96	48	5
TAP	43	192	0
TAP	43	288	6
TAP	44	0	6
TAP	44	0	7
TAP	44	96	4
TAP	44	192	3
TAP	44	192	5
TAP	44	288	2
TAP	44	288	6
BRK	45	0	1
BRK	45	0	7
BST	45	96	0
SF_	45	96	0	96	48	4
BRK	45	96	4
BRK	45	192	0
STR	46	0	6
SCR	46	0	6	96	96	1
STR	46	96	1
SCR	46	96	1	96	96	4
STR	46	192	4
SCR	46	192	4	96	96	7
STR	46	288	7
SCR	46	288	7	96	96	2
STR	47	0	2
SCR	47	0	2	96	96	5
TAP	47	96	5
BRK	47	192	7
TAP	47	288	7
STR	48	0	2
SV_	48	0	2	96	192	3
STR	48	0	6
SLR	48	0	6	96	192	4
STR	49	0	0
SXL	49	0	0	96	48	2
STR	49	0	7
SI_	49	0	7	96	48	5
BRK	49	192	0
BRK	49	288	0
TAP	50	0	4
TAP	50	48	4
TAP	50	96	1
TAP	50	192	3
TAP	50	192	6
STR	50	288	2
SCL	50	288	2	96	96	7
STR	50	288	3
SUL	50	288	3	96	96	6
TAP	51	192	0
TAP	51	240	0
BRK	51	288	1
BRK	51	288	5
TAP	52	0	3
TAP	52	48	3
TAP	52	96	6
TAP	52	192	2
TAP	52	192	4
TAP	52	288	4
STR	52	288	5
SUR	52	288	5	96	264	7
TAP	53	0	3
TAP	53	96	2
TAP	53	192	1
BRK	53	288	0
TAP	54	0	0
TAP	54	0	6
TAP	54	96	4
TAP	54	144	4
TAP	54	192	3
STR	54	288	0
SCL	54	288	0	96	96	5
STR	54	288	1
SUL	54	288	1	96	96	4
TAP	55	192	3
TAP	55	192	5
BRK	55	288	2
BRK	55	288	6
TAP	56	0	7
TAP	56	48	7
TAP	56	96	0
TAP	56	192	2
TAP	56	192	3
TAP	56	288	4
STR	56	288	5
SXR	56	288	5	96	216	7
TAP	57	0	0
TAP	57	96	0
TAP	57	192	0
BRK	57	288	0
TAP	58	0	3
BST	58	0	4
SV_	58	0	4	96	48	1
BST	58	144	5
SI_	58	144	5	96	24	7
TAP	59	0	6
HLD	59	0	7	240
TAP	59	96	0
HLD	59	144	0	96
TAP	59	288	1
TAP	59	288	6
BST	60	0	3
SV_	60	0	3	96	48	6
TAP	60	0	4
BST	60	144	2
SI_	60	144	2	96	24	0
TAP	60	240	4
TAP	60	288	4
TAP	61	0	4
TAP	61	96	3
TAP	61	96	5
TAP	61	192	2
TAP	61	192	6
TAP	61	288	1
TAP	61	288	7
BST	62	0	0
SF_	62	0	0	96	144	4
BST	63	0	1
SF_	63	0	1	96	144	5
BST	64	0	1
SCL	64	0	1	96	480	1
SXR	64	0	1	96	294	4
BRK	65	288	0
HLD	66	0	7	576
HLD	67	0	6	384
TAP	68	0	5
TAP	68	192	1
TAP	68	192	2
TAP	69	0	5
TAP	69	96	7
TAP	69	192	0
TAP	69	288	2
TAP	70	0	6
TAP	70	48	4
TAP	70	96	5
TAP	70	144	1
TAP	70	192	3
TAP	70	240	2
TAP	70	288	6
TAP	70	336	0
TAP	71	0	4
TAP	71	48	1
TAP	71	96	7
TAP	71	144	3
TAP	71	192	4
TAP	71	192	5
BRK	71	288	1
BRK	71	288	6
STR	72	0	6
SI_	72	0	6	96	24	4
TAP	72	48	4
STR	72	144	1
SI_	72	144	1	96	24	3
TAP	72	192	3
STR	72	288	6
SI_	72	288	6	96	24	4
TAP	72	336	4
TAP	73	48	1
STR	73	96	0
SI_	73	96	0	96	24	2
STR	73	96	7
SI_	73	96	7	96	24	5
TAP	73	192	0
TAP	73	192	7
TAP	73	288	3
TAP	73	288	4
BRK	74	0	0
BRK	74	0	7
TAP	74	96	2
TAP	74	96	5
TAP	74	144	0
STR	74	192	6
SI_	74	192	6	96	48	2
TAP	74	240	7
TAP	74	288	6
TAP	74	336	1
TAP	75	0	3
TAP	75	48	3
TAP	75	96	0
TAP	75	144	0
TAP	75	192	0
TAP	75	192	3
TAP	75	240	0
TAP	75	240	3
TAP	75	288	0
TAP	75	288	3
TAP	75	336	0
TAP	75	336	3
TAP	76	0	1
TAP	76	16	2
TAP	76	32	3
TAP	76	48	4
BRK	76	96	7
BRK	76	144	7
TAP	76	192	1
TAP	76	208	2
TAP	76	224	3
TAP	76	240	4
BRK	76	288	7
BRK	76	336	7
TAP	77	0	3
TAP	77	24	4
TAP	77	48	3
TAP	77	72	4
TAP	77	96	3
TAP	77	144	1
TAP	77	144	6
BRK	77	192	1
BRK	77	192	6
TAP	77	288	6
TAP	77	288	7
TAP	78	0	2
TAP	78	0	3
TAP	78	96	1
TAP	78	96	4
TAP	78	144	0
TAP	78	168	7
STR	78	192	0
SUL	78	192	0	96	48	4
SUR	78	192	0	96	48	4
TAP	78	288	0
TAP	79	0	2
TAP	79	0	6
TAP	79	48	4
TAP	79	72	3
STR	79	96	4
SI_	79	96	4	96	48	7
SCR	79	96	4	96	48	7
TAP	79	192	4
BRK	79	288	0
TAP	79	336	0
HLD	80	0	0	96
TAP	80	48	6
TAP	80	64	5
TAP	80	80	4
TAP	80	96	3
TAP	80	144	7
HLD	80	192	7	96
TAP	80	240	1
TAP	80	256	2
TAP	80	272	3
TAP	80	288	4
TAP	80	336	0
BRK	81	0	2
BRK	81	0	5
BST	81	96	0
SI_	81	96	0	96	48	4
BST	81	96	7
SI_	81	96	7	96	48	3
BRK	81	192	0
BRK	81	192	7
TAP	81	288	1
TAP	81	288	6
BRK	82	0	2
BRK	82	0	5
TAP	82	96	1
TAP	82	96	6
TAP	82	144	4
STR	82	192	1
SI_	82	192	1	96	48	5
TAP	82	240	3
TAP	82	288	1
TAP	82	336	6
TAP	83	0	4
TAP	83	48	4
TAP	83	96	7
TAP	83	144	7
TAP	83	192	4
TAP	83	192	7
TAP	83	240	4
TAP	83	240	7
TAP	83	288	4
TAP	83	288	7
TAP	83	336	4
TAP	83	336	7
HLD	84	0	6	48
TAP	84	48	4
HLD	84	96	6	48
TAP	84	144	0
HLD	84	192	6	48
TAP	84	240	3
TAP	84	288	6
TAP	84	336	0
TAP	85	0	6
TAP	85	0	7
TAP	85	48	6
TAP	85	48	7
TAP	85	96	3
TAP	85	96	4
TAP	85	144	3
TAP	85	144	4
BRK	85	192	1
BRK	85	192	6
TAP	85	288	4
TAP	85	288	5
TAP	86	0	3
TAP	86	0	6
TAP	86	96	1
TAP	86	144	0
TAP	86	192	6
STR	86	192	7
SI_	86	192	7	96	48	3
TAP	86	288	0
TAP	86	288	7
HLD	87	0	1	48
HLD	87	0	2	48
HLD	87	96	5	48
HLD	87	96	6	48
TAP	87	192	0
TAP	87	216	7
TAP	87	240	0
TAP	87	264	7
BRK	87	288	0
HLD	88	0	3	48
HLD	88	48	2	48
HLD	88	96	1	48
HLD	88	144	0	48
HLD	88	192	7	48
HLD	88	240	6	48
HLD	88	288	5	48
STR	88	336	4
SCR	88	336	4	96	672	3
STR	90	0	4
SCR	90	0	4	96	480	3
STR	91	0	4
SCR	91	0	4	96	336	3
STR	92	0	4
SCR	92	0	4	96	144	3
TAP	92	288	4
TAP	92	300	5
TAP	92	312	6
TAP	92	324	7
TAP	92	336	0
TAP	92	348	1
TAP	92	360	2
TAP	92	372	3
BRK	93	0	4
BRK	94	0	0
BRK	94	96	7
BRK	94	192	0
TAP	94	240	4
TAP	94	288	1
TAP	94	288	6
TAP	95	0	3
TAP	95	0	4
TAP	95	48	2
TAP	95	72	3
STR	95	96	2
SI_	95	96	2	96	48	7
TAP	95	144	4
BRK	95	240	6
BRK	95	288	6
TAP	96	0	3
TAP	96	0	4
TAP	96	48	5
TAP	96	72	4
STR	96	96	5
SI_	96	96	5	96	48	0
TAP	96	144	3
BRK	96	240	1
BRK	96	288	1
TAP	97	0	3
TAP	97	0	4
TAP	97	48	2
TAP	97	72	3
STR	97	96	2
SI_	97	96	2	96	48	7
TAP	97	144	4
BRK	97	240	6
BRK	97	288	6
TAP	98	0	2
TAP	98	0	3
TAP	98	48	2
STR	98	48	3
SF_	98	48	3	96	144	7
TAP	99	0	0
TAP	99	0	7
TAP	99	48	6
TAP	99	72	7
STR	99	96	6
SI_	99	96	6	96	48	3
TAP	99	144	0
BRK	99	240	2
BRK	99	288	2
TAP	100	0	0
TAP	100	0	7
TAP	100	48	1
TAP	100	72	0
STR	100	96	1
SI_	100	96	1	96	48	4
TAP	100	144	7
BRK	100	240	5
BRK	100	288	5
TAP	101	0	0
TAP	101	0	7
TAP	101	48	6
TAP	101	72	7
STR	101	96	6
SI_	101	96	6	96	48	3
TAP	101	144	0
BRK	101	240	2
BRK	101	288	2
STR	102	0	2
SCL	102	0	2	96	96	5
TAP	102	0	5
TAP	102	288	1
TAP	102	288	6
STR	103	0	2
SI_	103	0	2	96	24	0
TAP	103	48	2
STR	103	96	3
SI_	103	96	3	96	48	6
TAP	103	144	3
STR	103	192	2
SI_	103	192	2	96	48	7
TAP	103	240	2
STR	103	288	3
SI_	103	288	3	96	24	5
TAP	103	336	3
STR	104	0	2
SI_	104	0	2	96	24	0
TAP	104	48	2
STR	104	96	3
SI_	104	96	3	96	48	6
TAP	104	144	3
STR	104	192	2
SI_	104	192	2	96	48	7
TAP	104	240	2
STR	104	288	3
SI_	104	288	3	96	24	5
TAP	104	336	3
STR	105	0	2
SI_	105	0	2	96	24	0
TAP	105	48	2
STR	105	96	3
SI_	105	96	3	96	48	6
TAP	105	144	3
TAP	105	192	2
TAP	105	240	2
TAP	105	288	3
TAP	105	288	4
TAP	105	336	3
TAP	105	336	4
HLD	106	48	1	96
HLD	106	48	7	96
HLD	106	192	0	96
HLD	106	192	6	96
STR	107	0	5
SI_	107	0	5	96	24	7
TAP	107	48	5
STR	107	96	4
SI_	107	96	4	96	48	1
TAP	107	144	4
STR	107	192	5
SI_	107	192	5	96	48	0
TAP	107	240	5
STR	107	288	4
SI_	107	288	4	96	24	2
TAP	107	336	4
STR	108	0	5
SI_	108	0	5	96	24	7
TAP	108	48	5
STR	108	96	4
SI_	108	96	4	96	48	1
TAP	108	144	4
TAP	108	192	5
TAP	108	240	5
TAP	108	288	6
TAP	109	0	6
TAP	109	0	7
TAP	109	72	0
TAP	109	72	1
TAP	109	144	4
TAP	109	144	5
TAP	109	216	2
TAP	109	216	3
BRK	109	288	3
BRK	109	288	4
TAP	110	0	0
TAP	110	0	7
TAP	110	48	1
TAP	110	48	6
TAP	110	96	2
TAP	110	96	5
TAP	110	144	3
TAP	110	144	4
STR	110	168	3
SI_	110	168	3	96	48	0
TAP	110	168	4
BRK	110	288	5

T_REC_TAP	447
T_REC_BRK	84
T_REC_XTP	0
T_REC_HLD	40
T_REC_XHO	0
T_REC_STR	91
T_REC_BST	15
T_REC_XST	0
T_REC_TTP	0
T_REC_THO	0
T_REC_SLD	110
T_REC_ALL	787
T_NUM_TAP	538
T_NUM_BRK	99
T_NUM_HLD	40
T_NUM_SLD	110
T_NUM_ALL	787
T_JUDGE_TAP	637
T_JUDGE_HLD	83
T_JUDGE_SLD	110
T_JUDGE_ALL	830
TTM_EACHPAIRS	143
TTM_SCR_TAP	269000
TTM_SCR_BRK	257400
TTM_SCR_HLD	40000
TTM_SCR_SLD	165000
TTM_SCR_ALL	731400
TTM_SCR_S	699900
TTM_SCR_SS	721500
TTM_RAT_ACV	10137

