VERSION	0.00.00	1.03.00
FES_MODE	0
BPM_DEF	216.000	216.000	216.000	216.000
MET_DEF	4	4
RESOLUTION	384
CLK_DEF	384
COMPATIBLE_CODE	MA2

BPM	0	0	216.000

HLD	2	0	5	192
TAP	2	96	4
TAP	2	192	4
HLD	3	0	6	192
TAP	3	96	7
TAP	3	192	7
HLD	4	0	5	192
TAP	4	96	4
TAP	4	192	4
TAP	5	0	6
TAP	5	96	5
TAP	5	192	4
STR	5	288	2
SCL	5	288	2	96	240	6
STR	5	288	3
SXL	5	288	3	96	240	5
HLD	7	0	1	192
TAP	7	96	0
TAP	7	192	0
HLD	8	0	6	192
TAP	8	96	7
TAP	8	192	7
STR	9	0	0
SI_	9	0	0	96	168	4
STR	9	0	6
SI_	9	0	6	96	168	2
HLD	10	0	2	96
HLD	10	0	3	96
HLD	10	192	0	96
HLD	10	192	1	96
HLD	11	0	2	96
HLD	11	0	3	96
HLD	11	192	0	96
HLD	11	192	1	96
TAP	12	0	0
TAP	12	0	7
TAP	12	96	0
TAP	12	96	7
BRK	12	192	0
BRK	12	192	7
BST	12	288	0
SCR	12	288	0	96	192	3
BST	12	288	7
SCL	12	288	7	96	192	4
TAP	14	0	2
TAP	14	96	2
TAP	14	96	3
TAP	14	192	1
TAP	14	288	0
TAP	14	288	1
TAP	15	0	2
TAP	15	96	1
TAP	15	96	3
TAP	15	192	0
TAP	15	288	1
TAP	15	288	7
TAP	16	0	6
TAP	16	96	5
TAP	16	192	4
TAP	16	288	3
TAP	17	0	4
TAP	17	48	4
TAP	17	96	3
TAP	17	192	2
TAP	17	192	5
TAP	18	0	0
TAP	18	0	6
TAP	18	96	1
TAP	18	96	5
TAP	18	192	0
TAP	18	192	6
TAP	18	288	2
TAP	18	288	5
TAP	19	0	1
TAP	19	0	7
TAP	19	96	2
TAP	19	96	6
TAP	19	192	1
TAP	19	192	7
TAP	19	288	2
TAP	19	288	5
TAP	20	0	0
TAP	20	0	6
TAP	20	96	1
TAP	20	96	5
TAP	20	192	0
TAP	20	192	6
TAP	20	288	2
TAP	20	288	5
BST	21	0	6
SI_	21	0	6	96	120	4
BST	21	0	7
SI_	21	0	7	96	120	3
TAP	22	0	1
TAP	22	0	7
TAP	22	96	2
TAP	22	96	6
TAP	22	192	1
TAP	22	192	7
TAP	22	288	2
TAP	22	288	5
TAP	23	0	0
TAP	23	0	6
TAP	23	96	1
TAP	23	96	5
TAP	23	192	0
TAP	23	192	6
TAP	23	288	2
TAP	23	288	5
TAP	24	0	1
TAP	24	0	7
TAP	24	96	2
TAP	24	96	6
TAP	24	192	1
TAP	24	192	7
TAP	24	288	2
TAP	24	288	5
STR	25	0	1
SV_	25	0	1	96	120	3
STR	25	0	7
SV_	25	0	7	96	120	5
TAP	26	0	1
TAP	26	0	7
TAP	26	96	3
TAP	26	96	5
TAP	26	192	1
TAP	26	192	7
TAP	26	288	3
TAP	26	288	5
TAP	27	0	0
TAP	27	0	6
TAP	27	96	2
TAP	27	96	4
TAP	27	192	0
TAP	27	192	6
TAP	27	288	2
TAP	27	288	4
TAP	28	0	1
TAP	28	0	7
TAP	28	96	3
TAP	28	96	5
TAP	28	192	1
TAP	28	192	7
TAP	28	288	3
TAP	28	288	5
BST	29	0	1
SCR	29	0	1	96	120	4
BST	29	0	7
SCL	29	0	7	96	120	4
TAP	30	0	0
TAP	30	0	6
TAP	30	96	2
TAP	30	96	4
TAP	30	192	0
TAP	30	192	6
TAP	30	288	2
TAP	30	288	3
TAP	31	0	1
TAP	31	0	7
TAP	31	96	3
TAP	31	96	5
TAP	31	192	1
TAP	31	192	7
TAP	31	288	4
TAP	31	288	5
TAP	32	0	6
TAP	32	0	7
TAP	32	96	0
TAP	32	96	5
TAP	32	192	1
TAP	32	192	4
TAP	32	288	2
TAP	32	288	3
TAP	33	0	3
TAP	33	48	3
STR	33	96	4
SI_	33	96	4	96	72	0
HLD	34	0	6	144
HLD	34	0	7	144
TAP	34	192	6
TAP	34	192	7
STR	35	0	5
SI_	35	0	5	96	144	2
STR	35	0	6
SUR	35	0	6	96	144	2
HLD	36	0	2	144
HLD	36	0	3	144
TAP	36	192	2
TAP	36	192	3
BRK	36	288	4
BRK	37	0	4
BRK	37	96	4
BRK	37	192	4
BRK	37	288	4
STR	38	0	5
SI_	38	0	5	96	192	2
SUR	38	0	5	96	192	2
BST	39	0	0
SI_	39	0	0	96	144	3
HLD	39	288	4	480
TAP	40	0	3
BRK	40	96	2
BRK	40	192	2
BRK	40	288	2
BRK	41	0	2
TAP	41	96	3
TAP	41	192	1
TAP	41	192	5
HLD	42	0	0	144
HLD	42	0	1	144
TAP	42	192	0
TAP	42	192	1
BST	43	0	0
SI_	43	0	0	96	144	3
HLD	44	0	4	144
HLD	44	0	5	144
TAP	44	192	4
TAP	44	192	5
STR	45	0	4
SF_	45	0	4	96	144	0
HLD	46	0	6	96
HLD	46	0	7	96
HLD	46	192	0	96
HLD	46	192	1	96
HLD	47	0	4	96
HLD	47	0	6	96
HLD	47	192	1	96
HLD	47	192	3	96
STR	48	0	6
SSR	48	0	6	96	384	2
STR	50	0	1
SI_	50	0	1	96	144	6
STR	50	0	2
SI_	50	0	2	96	144	5
HLD	51	0	7	288
TAP	51	96	0
HLD	51	144	0	144
STR	52	0	2
SCR	52	0	2	96	192	5
SUL	52	0	2	96	192	5
TAP	53	0	6
TAP	53	96	6
TAP	53	96	7
TAP	53	192	1
TAP	53	288	0
TAP	53	288	1
BRK	54	0	0
TAP	54	96	1
TAP	54	96	7
TAP	54	192	0
STR	54	288	0
SXL	54	288	0	96	264	4
SXR	54	288	0	96	264	4
TAP	56	0	3
STR	56	96	4
SI_	56	96	4	96	96	7
BRK	57	0	7
TAP	57	96	6
TAP	57	96	7
TAP	57	192	0
BRK	57	288	0
BRK	57	288	1
HLD	58	0	6	96
HLD	58	0	7	96
HLD	58	144	0	96
HLD	58	144	5	96
TAP	59	0	4
TAP	59	0	5
TAP	59	96	3
TAP	59	96	6
HLD	59	144	3	144
HLD	59	144	6	144
HLD	60	0	0	96
HLD	60	0	1	96
HLD	60	144	2	96
HLD	60	144	7	96
TAP	61	0	2
TAP	61	0	3
TAP	61	96	1
TAP	61	192	4
TAP	61	192	5
TAP	61	288	6
HLD	62	0	0	192
TAP	62	192	7
HLD	63	0	1	192
TAP	63	192	2
BST	64	0	1
SXR	64	0	1	96	432	4
BRK	64	0	6
BRK	65	288	7
HLD	66	0	1	192
TAP	66	192	0
HLD	67	0	6	192
TAP	67	192	7
HLD	68	0	5	192
HLD	68	192	4	192
HLD	69	0	3	192
TAP	69	192	2
TAP	70	0	5
TAP	70	96	4
TAP	70	96	5
TAP	70	192	2
TAP	70	288	2
TAP	70	288	3
TAP	71	0	3
TAP	71	0	4
TAP	71	96	2
TAP	71	96	5
TAP	71	192	3
TAP	71	192	4
BRK	71	288	1
BRK	71	288	6
TAP	72	0	0
TAP	72	48	7
TAP	72	144	7
STR	72	192	0
SUR	72	192	0	96	96	4
HLD	73	96	0	96
HLD	73	96	5	96
HLD	73	240	6	48
HLD	73	240	7	48
HLD	73	336	6	48
HLD	73	336	7	48
TAP	74	96	5
TAP	74	144	5
TAP	74	192	4
STR	74	288	3
SV_	74	288	3	96	120	1
STR	74	288	5
SV_	74	288	5	96	120	7
HLD	75	240	0	48
HLD	75	240	2	48
HLD	75	336	0	48
HLD	75	336	2	48
TAP	76	96	3
TAP	76	144	3
TAP	76	192	4
TAP	76	288	6
TAP	77	0	4
STR	77	0	6
SSL	77	0	6	96	192	2
TAP	77	288	0
HLD	78	0	1	96
HLD	78	0	7	96
TAP	78	192	0
TAP	78	192	1
TAP	78	288	2
TAP	78	288	7
TAP	79	0	1
TAP	79	0	4
TAP	79	96	3
TAP	79	96	6
TAP	79	192	1
TAP	79	192	4
TAP	79	288	3
TAP	79	288	6
STR	80	0	1
SCR	80	0	1	96	48	3
STR	80	0	4
SCR	80	0	4	96	48	6
STR	80	192	1
SCR	80	192	1	96	48	3
STR	80	192	4
SCR	80	192	4	96	48	6
BRK	81	0	7
BRK	81	96	7
BRK	81	192	7
TAP	81	240	1
TAP	81	288	0
TAP	81	336	1
TAP	82	0	0
TAP	82	96	2
TAP	82	144	2
TAP	82	192	3
STR	82	288	3
SXL	82	288	3	96	120	5
SXR	82	288	3	96	120	1
TAP	83	240	5
TAP	83	288	7
TAP	83	336	5
TAP	84	0	7
TAP	84	96	4
TAP	84	144	4
TAP	84	192	3
TAP	84	288	1
STR	85	0	1
SUR	85	0	1	96	96	5
TAP	85	0	3
TAP	85	288	7
TAP	86	0	0
TAP	86	0	6
TAP	86	96	0
TAP	86	96	6
TAP	86	192	6
TAP	86	192	7
STR	86	288	0
SF_	86	288	0	96	288	4
TAP	86	288	5
STR	88	0	4
SCL	88	0	4	96	144	1
SCR	88	0	4	96	144	7
STR	89	0	2
SV_	89	0	2	96	192	5
STR	89	0	3
SV_	89	0	3	96	192	4
STR	90	0	4
SV_	90	0	4	96	192	3
STR	90	0	5
SUR	90	0	5	96	192	2
STR	91	0	2
SCL	91	0	2	96	192	5
STR	91	0	3
SUL	91	0	3	96	192	4
STR	92	0	4
SUL	92	0	4	96	240	3
STR	92	0	5
SCR	92	0	5	96	240	2
BRK	94	0	6
BRK	94	96	6
BRK	94	192	6
TAP	95	0	6
TAP	95	0	7
TAP	95	96	1
TAP	95	96	5
TAP	95	192	0
TAP	95	192	7
TAP	95	288	1
TAP	95	288	5
TAP	96	0	0
TAP	96	0	1
TAP	96	96	2
TAP	96	96	6
TAP	96	192	0
TAP	96	192	7
TAP	96	288	2
TAP	96	288	6
TAP	97	0	6
TAP	97	0	7
TAP	97	96	1
TAP	97	96	5
TAP	97	192	0
TAP	97	192	7
TAP	97	288	1
TAP	97	288	5
STR	98	0	3
SF_	98	0	3	96	144	7
TAP	99	0	0
TAP	99	0	1
TAP	99	96	2
TAP	99	96	6
TAP	99	192	0
TAP	99	192	7
TAP	99	288	2
TAP	99	288	6
TAP	100	0	6
TAP	100	0	7
TAP	100	96	1
TAP	100	96	5
TAP	100	192	0
TAP	100	192	7
TAP	100	288	1
TAP	100	288	5
TAP	101	0	0
TAP	101	0	1
TAP	101	96	2
TAP	101	96	6
TAP	101	192	0
TAP	101	192	7
TAP	101	288	2
TAP	101	288	6
STR	102	0	7
SCL	102	0	7	96	192	2
TAP	103	0	1
TAP	103	0	7
TAP	103	96	3
TAP	103	96	5
TAP	103	192	1
TAP	103	192	7
TAP	103	288	4
TAP	103	288	5
TAP	104	0	0
TAP	104	0	6
TAP	104	96	2
TAP	104	96	4
TAP	104	192	0
TAP	104	192	6
TAP	104	288	2
TAP	104	288	3
TAP	105	0	1
TAP	105	0	7
TAP	105	96	3
TAP	105	96	5
TAP	105	192	1
TAP	105	192	7
TAP	105	288	4
TAP	105	288	5
TAP	106	0	3
TAP	106	0	6
HLD	106	96	0	144
HLD	106	96	1	144
TAP	107	0	6
TAP	107	0	7
TAP	107	96	2
TAP	107	96	4
TAP	107	192	0
TAP	107	192	1
TAP	107	288	3
TAP	107	288	5
TAP	108	0	6
TAP	108	0	7
TAP	108	96	2
TAP	108	96	4
TAP	108	192	0
TAP	108	192	1
TAP	108	288	3
TAP	108	288	5
TAP	109	0	0
TAP	109	0	1
TAP	109	96	2
TAP	109	96	7
TAP	109	192	3
TAP	109	192	6
TAP	109	288	4
TAP	109	288	5
TAP	110	0	4
TAP	110	48	4
TAP	110	96	3
TAP	110	192	7
BRK	110	288	1
BRK	110	288	6

T_REC_TAP	339
T_REC_BRK	27
T_REC_XTP	0
T_REC_HLD	63
T_REC_XHO	0
T_REC_STR	39
T_REC_BST	9
T_REC_XST	0
T_REC_TTP	0
T_REC_THO	0
T_REC_SLD	53
T_REC_ALL	530
T_NUM_TAP	378
T_NUM_BRK	36
T_NUM_HLD	63
T_NUM_SLD	53
T_NUM_ALL	530
T_JUDGE_TAP	414
T_JUDGE_HLD	167
T_JUDGE_SLD	53
T_JUDGE_ALL	634
TTM_EACHPAIRS	178
TTM_SCR_TAP	189000
TTM_SCR_BRK	93600
TTM_SCR_HLD	63000
TTM_SCR_SLD	79500
TTM_SCR_ALL	425100
TTM_SCR_S	408900
TTM_SCR_SS	421500
TTM_RAT_ACV	10085

