VERSION	0.00.00	1.03.00
FES_MODE	0
BPM_DEF	216.000	216.000	216.000	216.000
MET_DEF	4	4
RESOLUTION	384
CLK_DEF	384
COMPATIBLE_CODE	MA2

BPM	0	0	216.000

HLD	2	0	6	384
HLD	3	0	7	384
HLD	4	0	0	384
TAP	5	0	1
BRK	5	192	0
BRK	5	192	1
HLD	6	0	2	384
HLD	7	0	3	384
HLD	8	0	4	384
TAP	9	0	5
BRK	9	192	6
BRK	9	288	6
TAP	10	0	4
TAP	10	0	5
TAP	10	192	4
TAP	10	192	5
TAP	11	0	2
TAP	11	0	3
TAP	11	192	2
TAP	11	192	3
TAP	12	0	3
TAP	12	0	4
TAP	12	192	3
TAP	12	192	4
TAP	13	0	2
TAP	13	0	5
TAP	13	192	1
TAP	13	192	6
TAP	14	0	1
TAP	14	96	1
TAP	14	192	0
TAP	14	192	1
TAP	15	0	6
TAP	15	96	6
TAP	15	192	6
TAP	15	192	7
TAP	16	0	0
TAP	16	0	7
TAP	16	96	0
TAP	16	96	7
TAP	16	192	1
TAP	16	192	6
TAP	17	0	2
TAP	17	0	5
TAP	17	96	2
TAP	17	96	5
BRK	17	192	3
BRK	17	192	4
TAP	18	0	2
TAP	18	96	2
TAP	18	192	3
TAP	18	288	3
TAP	19	0	2
TAP	19	96	2
TAP	19	96	3
TAP	19	192	1
TAP	19	192	4
TAP	20	0	5
TAP	20	96	5
TAP	20	192	4
TAP	20	288	4
STR	21	0	5
SCR	21	0	5	96	192	0
TAP	22	0	1
TAP	22	96	1
TAP	22	192	0
TAP	22	288	0
TAP	23	0	1
TAP	23	96	0
TAP	23	96	1
TAP	23	192	2
TAP	23	192	7
TAP	24	0	6
TAP	24	96	6
TAP	24	192	7
TAP	24	288	7
STR	25	0	6
SCL	25	0	6	96	192	3
TAP	26	0	2
TAP	26	96	2
TAP	26	192	1
TAP	26	288	1
TAP	27	0	0
TAP	27	96	1
TAP	27	96	7
TAP	27	192	2
TAP	27	192	6
TAP	28	0	5
TAP	28	96	5
TAP	28	192	6
TAP	28	288	6
STR	29	0	7
SI_	29	0	7	96	192	3
TAP	30	0	2
TAP	30	96	2
TAP	30	192	1
TAP	30	288	1
TAP	31	0	0
TAP	31	96	1
TAP	31	96	7
TAP	31	192	2
TAP	31	192	6
TAP	32	0	7
TAP	32	96	0
TAP	32	192	1
TAP	32	192	6
TAP	32	288	1
TAP	32	288	6
BRK	33	0	2
BRK	33	0	5
HLD	34	0	2	192
TAP	34	192	3
TAP	35	0	2
TAP	35	96	3
TAP	35	192	1
TAP	35	192	4
HLD	36	0	5	192
TAP	36	192	4
TAP	37	0	5
TAP	37	96	4
TAP	37	192	3
TAP	37	192	6
HLD	38	0	7	384
HLD	39	0	0	384
HLD	40	0	1	384
HLD	41	0	2	192
TAP	41	192	3
HLD	42	0	1	192
TAP	42	192	0
TAP	43	0	1
TAP	43	96	0
TAP	43	192	2
TAP	43	192	7
HLD	44	0	6	192
TAP	44	192	7
TAP	45	0	6
TAP	45	96	7
TAP	45	192	0
TAP	45	192	5
HLD	46	0	4	384
HLD	47	0	3	384
HLD	48	0	2	384
HLD	49	0	1	192
TAP	49	192	0
HLD	50	0	2	192
TAP	50	192	3
TAP	51	0	2
TAP	51	0	3
TAP	51	192	1
TAP	51	192	4
HLD	52	0	5	192
TAP	52	192	4
TAP	53	0	4
TAP	53	0	5
TAP	53	192	3
TAP	53	192	6
HLD	54	0	6	192
TAP	54	192	7
TAP	55	0	6
TAP	55	0	7
TAP	55	192	0
TAP	55	192	5
HLD	56	0	1	192
TAP	56	192	0
TAP	57	0	0
TAP	57	0	1
TAP	57	192	2
TAP	57	192	7
TAP	58	0	1
TAP	58	96	0
TAP	58	192	1
STR	59	0	7
SI_	59	0	7	96	192	4
TAP	60	0	2
TAP	60	96	3
TAP	60	192	2
STR	61	0	4
SI_	61	0	4	96	192	7
BRK	62	0	0
BRK	63	0	1
STR	64	0	1
SXR	64	0	1	96	480	4
HLD	66	0	5	384
HLD	67	0	6	384
HLD	68	0	7	192
HLD	68	192	0	192
TAP	69	0	7
TAP	69	192	1
TAP	69	192	6
TAP	70	0	4
TAP	70	0	5
TAP	70	192	2
TAP	70	192	3
TAP	71	0	3
TAP	71	0	4
TAP	71	192	2
TAP	71	192	5
TAP	72	0	1
TAP	72	0	6
TAP	72	192	0
TAP	72	192	7
TAP	73	0	0
TAP	73	96	0
BRK	73	192	0
BRK	73	192	7
TAP	74	0	6
TAP	74	96	7
TAP	74	192	6
TAP	74	288	7
TAP	75	0	0
TAP	75	0	1
TAP	75	96	0
TAP	75	96	1
BRK	75	192	2
BRK	75	192	7
TAP	76	0	2
TAP	76	96	3
TAP	76	192	2
TAP	76	288	3
TAP	77	0	4
TAP	77	0	5
TAP	77	96	4
TAP	77	96	5
BRK	77	192	3
BRK	77	192	6
HLD	78	0	2	192
TAP	78	96	3
TAP	78	192	3
HLD	79	0	5	192
TAP	79	96	4
TAP	79	192	4
HLD	80	0	6	96
HLD	80	0	7	96
HLD	80	192	0	96
HLD	80	192	1	96
TAP	81	0	0
TAP	81	0	7
TAP	81	96	0
TAP	81	96	7
BRK	81	192	1
BRK	81	192	6
TAP	82	0	4
TAP	82	0	5
TAP	82	96	4
TAP	82	96	5
TAP	82	192	2
TAP	82	192	3
TAP	82	288	2
TAP	82	288	3
TAP	83	0	3
TAP	83	0	4
TAP	83	96	3
TAP	83	96	4
BRK	83	192	2
BRK	83	192	5
TAP	84	0	0
TAP	84	0	1
TAP	84	96	0
TAP	84	96	1
TAP	84	192	6
TAP	84	192	7
TAP	84	288	6
TAP	84	288	7
TAP	85	0	0
TAP	85	0	7
TAP	85	96	0
TAP	85	96	7
BRK	85	192	1
BRK	85	192	6
HLD	86	0	6	192
TAP	86	96	7
TAP	86	192	7
HLD	87	0	1	192
TAP	87	96	0
TAP	87	192	0
HLD	88	0	2	96
HLD	88	0	3	96
HLD	88	192	4	96
HLD	88	192	5	96
HLD	89	0	3	192
HLD	89	0	4	192
HLD	90	0	2	192
HLD	90	0	5	192
HLD	91	0	1	192
HLD	91	0	6	192
HLD	92	0	0	192
HLD	92	0	7	192
BRK	93	0	1
TAP	95	0	2
TAP	95	96	2
TAP	95	192	3
TAP	95	288	3
TAP	96	0	2
TAP	96	96	2
TAP	96	96	3
TAP	96	192	1
TAP	96	192	4
TAP	97	0	5
TAP	97	96	5
TAP	97	192	4
TAP	97	288	4
STR	98	0	5
SCR	98	0	5	96	192	0
TAP	99	0	1
TAP	99	96	1
TAP	99	192	0
TAP	99	288	0
TAP	100	0	1
TAP	100	96	0
TAP	100	96	1
TAP	100	192	2
TAP	100	192	7
TAP	101	0	6
TAP	101	96	6
TAP	101	192	7
TAP	101	288	7
STR	102	0	6
SCL	102	0	6	96	192	3
TAP	103	0	2
TAP	103	96	2
TAP	103	192	1
TAP	103	288	1
TAP	104	0	0
TAP	104	96	1
TAP	104	96	7
TAP	104	192	2
TAP	104	192	6
TAP	105	0	5
TAP	105	96	5
TAP	105	192	6
TAP	105	288	6
STR	106	0	7
SI_	106	0	7	96	192	3
TAP	107	0	2
TAP	107	96	2
TAP	107	192	1
TAP	107	288	1
TAP	108	0	0
TAP	108	96	1
TAP	108	96	7
TAP	108	192	2
TAP	108	192	6
TAP	109	0	7
TAP	109	96	0
TAP	109	192	1
TAP	109	192	6
TAP	109	288	1
TAP	109	288	6
HLD	110	0	2	192
HLD	110	0	5	192
BRK	110	288	2
BRK	110	288	5

T_REC_TAP	261
T_REC_BRK	25
T_REC_XTP	0
T_REC_HLD	48
T_REC_XHO	0
T_REC_STR	9
T_REC_BST	0
T_REC_XST	0
T_REC_TTP	0
T_REC_THO	0
T_REC_SLD	9
T_REC_ALL	352
T_NUM_TAP	270
T_NUM_BRK	25
T_NUM_HLD	48
T_NUM_SLD	9
T_NUM_ALL	352
T_JUDGE_TAP	295
T_JUDGE_HLD	232
T_JUDGE_SLD	9
T_JUDGE_ALL	536
TTM_EACHPAIRS	91
TTM_SCR_TAP	135000
TTM_SCR_BRK	65000
TTM_SCR_HLD	48000
TTM_SCR_SLD	13500
TTM_SCR_ALL	261500
TTM_SCR_S	251250
TTM_SCR_SS	259000
TTM_RAT_ACV	10096

