VERSION	0.00.00	1.03.00
FES_MODE	0
BPM_DEF	216.000	216.000	216.000	216.000
MET_DEF	4	4
RESOLUTION	384
CLK_DEF	384
COMPATIBLE_CODE	MA2

BPM	0	0	216.000

TAP	2	0	3
TAP	3	0	4
TAP	4	0	3
TAP	4	192	4
TAP	5	0	3
TAP	6	0	2
TAP	7	0	1
TAP	8	0	0
TAP	8	192	7
TAP	9	0	0
TAP	9	0	7
STR	10	0	0
SI_	10	0	0	96	288	3
STR	12	0	7
SI_	12	0	7	96	288	4
TAP	14	0	0
TAP	15	0	7
TAP	16	0	0
TAP	16	192	7
BRK	17	0	0
HLD	18	0	0	144
HLD	18	0	1	144
HLD	19	0	0	144
HLD	19	0	1	144
HLD	20	0	0	144
HLD	20	0	1	144
TAP	21	0	7
TAP	21	192	7
HLD	22	0	6	144
HLD	22	0	7	144
HLD	23	0	6	144
HLD	23	0	7	144
HLD	24	0	6	144
HLD	24	0	7	144
TAP	25	0	0
TAP	25	192	0
HLD	26	0	1	144
HLD	26	0	7	144
HLD	27	0	1	144
HLD	27	0	7	144
HLD	28	0	1	144
HLD	28	0	7	144
TAP	29	0	7
TAP	29	192	7
HLD	30	0	0	144
HLD	30	0	6	144
HLD	31	0	0	144
HLD	31	0	6	144
TAP	32	0	7
TAP	32	192	0
TAP	33	0	7
TAP	33	96	0
TAP	33	192	7
STR	34	0	1
SI_	34	0	1	96	288	6
STR	36	0	5
SI_	36	0	5	96	288	2
TAP	38	0	1
TAP	38	192	1
TAP	39	0	0
TAP	39	192	0
TAP	40	0	7
TAP	40	192	7
TAP	41	0	0
TAP	41	0	7
TAP	41	192	0
TAP	41	192	7
STR	42	0	7
SI_	42	0	7	96	288	4
STR	44	0	3
SI_	44	0	3	96	288	0
TAP	46	0	7
TAP	46	192	7
TAP	47	0	6
TAP	47	192	6
BRK	48	0	4
BRK	48	0	5
TAP	50	0	4
TAP	50	192	4
TAP	51	0	3
TAP	51	96	3
TAP	51	192	3
TAP	52	0	3
TAP	52	192	3
TAP	53	0	4
TAP	53	96	4
TAP	53	192	4
TAP	54	0	4
TAP	54	0	5
TAP	54	192	4
TAP	54	192	5
HLD	55	0	2	192
HLD	55	0	3	192
TAP	56	0	2
TAP	56	0	3
TAP	56	192	2
TAP	56	192	3
HLD	57	0	4	192
HLD	57	0	5	192
HLD	58	0	6	144
TAP	59	0	0
TAP	59	0	7
TAP	59	192	0
TAP	59	192	7
HLD	60	0	1	144
TAP	61	0	0
TAP	61	0	7
TAP	61	192	0
TAP	61	192	7
TAP	62	0	0
TAP	63	0	0
TAP	63	0	7
HLD	64	0	1	384
HLD	64	0	6	384
BRK	65	288	0
BRK	65	288	7
STR	70	0	0
SI_	70	0	0	96	288	3
STR	72	0	7
SI_	72	0	7	96	288	4
TAP	74	0	3
TAP	74	96	3
TAP	74	192	3
TAP	75	0	2
TAP	75	0	4
TAP	75	192	2
TAP	75	192	4
TAP	76	0	4
TAP	76	96	4
TAP	76	192	4
HLD	77	0	3	192
HLD	77	0	5	192
TAP	78	0	4
TAP	78	96	4
TAP	78	192	4
TAP	79	0	3
TAP	79	96	3
TAP	79	192	3
TAP	80	0	2
TAP	80	0	4
TAP	80	192	3
TAP	80	192	5
TAP	81	0	2
TAP	81	0	4
TAP	81	96	2
TAP	81	96	4
TAP	81	192	2
TAP	81	192	4
TAP	82	0	1
TAP	82	192	1
TAP	83	0	0
TAP	83	96	0
TAP	83	192	0
TAP	84	0	7
TAP	84	192	7
TAP	85	0	0
TAP	85	96	0
TAP	85	192	0
TAP	86	0	1
TAP	86	0	7
TAP	86	192	1
TAP	86	192	7
TAP	87	0	0
TAP	87	0	6
TAP	87	192	0
TAP	87	192	6
TAP	88	0	7
TAP	88	96	0
TAP	88	192	7
HLD	89	0	0	192
HLD	89	0	7	192
HLD	90	0	1	192
HLD	90	0	6	192
HLD	91	0	2	192
HLD	91	0	5	192
HLD	92	0	3	384
HLD	92	0	4	384
TAP	95	0	4
TAP	95	0	5
TAP	95	96	4
TAP	95	96	5
TAP	95	192	4
TAP	95	192	5
TAP	96	0	2
TAP	96	0	3
TAP	96	96	2
TAP	96	96	3
TAP	96	192	2
TAP	96	192	3
TAP	97	0	4
TAP	97	0	5
TAP	97	96	4
TAP	97	96	5
TAP	97	192	4
TAP	97	192	5
TAP	98	0	3
TAP	98	0	4
TAP	98	192	3
TAP	98	192	4
TAP	99	0	2
TAP	99	0	3
TAP	99	96	2
TAP	99	96	3
BRK	99	192	2
BRK	99	192	3
TAP	100	0	4
TAP	100	0	5
TAP	100	96	4
TAP	100	96	5
BRK	100	192	4
BRK	100	192	5
TAP	101	0	2
TAP	101	0	3
TAP	101	96	2
TAP	101	96	3
BRK	101	192	2
BRK	101	192	3
TAP	102	0	3
TAP	102	0	4
TAP	102	192	3
TAP	102	192	4
TAP	103	0	5
TAP	103	96	5
TAP	103	192	5
TAP	104	0	6
TAP	104	96	6
TAP	104	192	6
TAP	105	0	7
TAP	105	96	7
TAP	105	192	7
TAP	106	0	0
TAP	106	0	7
TAP	106	192	0
TAP	106	192	7
TAP	107	0	1
TAP	107	96	1
TAP	107	192	1
TAP	108	0	2
TAP	108	96	2
TAP	108	192	2
TAP	109	0	3
TAP	109	192	4
TAP	110	0	3
TAP	110	96	4
TAP	110	192	3
TAP	110	288	2
TAP	110	288	5

T_REC_TAP	180
T_REC_BRK	11
T_REC_XTP	0
T_REC_HLD	40
T_REC_XHO	0
T_REC_STR	8
T_REC_BST	0
T_REC_XST	0
T_REC_TTP	0
T_REC_THO	0
T_REC_SLD	8
T_REC_ALL	247
T_NUM_TAP	188
T_NUM_BRK	11
T_NUM_HLD	40
T_NUM_SLD	8
T_NUM_ALL	247
T_JUDGE_TAP	199
T_JUDGE_HLD	152
T_JUDGE_SLD	8
T_JUDGE_ALL	359
TTM_EACHPAIRS	69
TTM_SCR_TAP	94000
TTM_SCR_BRK	28600
TTM_SCR_HLD	40000
TTM_SCR_SLD	12000
TTM_SCR_ALL	174600
TTM_SCR_S	168300
TTM_SCR_SS	173500
TTM_RAT_ACV	10063

