VERSION	0.00.00	1.03.00
FES_MODE	0
BPM_DEF	183.000	183.000	183.000	183.000
MET_DEF	4	4
RESOLUTION	384
CLK_DEF	384
COMPATIBLE_CODE	MA2

BPM	0	0	183.000

TAP	1	0	0
TAP	1	192	1
BRK	2	0	0
BRK	2	96	1
BRK	2	192	2
TAP	2	240	3
TAP	2	288	2
TAP	2	288	4
TAP	3	0	4
TAP	3	96	2
TAP	3	144	2
TAP	3	192	4
TAP	3	240	4
TAP	3	288	2
TAP	3	336	4
TAP	4	48	4
TAP	4	96	2
TAP	4	144	2
TAP	4	192	4
TAP	4	240	4
TAP	4	288	2
TAP	5	0	3
TAP	5	96	5
TAP	5	144	5
TAP	5	192	3
TAP	5	240	3
TAP	5	288	5
TAP	5	336	3
TAP	6	48	3
TAP	6	96	5
TAP	6	144	5
TAP	6	192	3
TAP	6	240	3
TAP	6	288	5
TAP	6	336	4
TAP	7	0	3
TAP	7	96	2
TAP	7	96	4
TAP	7	144	2
TAP	7	144	4
TAP	7	192	3
TAP	7	240	3
TAP	7	288	2
TAP	7	288	4
TAP	7	336	3
TAP	8	48	3
TAP	8	96	2
TAP	8	96	4
TAP	8	144	2
TAP	8	144	4
TAP	8	192	3
TAP	8	240	3
TAP	8	288	2
TAP	8	288	4
TAP	9	0	4
TAP	9	96	3
TAP	9	96	5
TAP	9	144	3
TAP	9	144	5
TAP	9	192	4
TAP	9	240	4
TAP	9	288	3
TAP	9	288	5
TAP	9	336	4
TAP	10	48	4
TAP	10	96	3
TAP	10	96	5
TAP	10	144	3
TAP	10	144	5
TAP	10	192	4
TAP	10	240	4
TAP	10	288	3
TAP	10	288	5
HLD	11	0	2	288
STR	11	0	6
SI_	11	0	6	96	48	4
STR	11	192	6
SI_	11	192	6	96	48	4
STR	12	0	1
SI_	12	0	1	96	48	3
HLD	12	0	5	288
STR	12	192	1
SI_	12	192	1	96	48	3
HLD	13	0	2	288
STR	13	0	6
SI_	13	0	6	96	48	3
STR	13	192	6
SI_	13	192	6	96	48	3
STR	14	0	1
SI_	14	0	1	96	48	4
HLD	14	0	5	288
STR	14	192	1
SI_	14	192	1	96	48	4
HLD	15	0	2	288
STR	15	0	7
SI_	15	0	7	96	48	3
STR	15	192	7
SI_	15	192	7	96	48	3
STR	16	0	1
SCR	16	0	1	96	48	4
HLD	16	0	5	288
STR	16	192	1
SCR	16	192	1	96	48	4
TAP	17	0	2
STR	17	0	6
SSL	17	0	6	96	216	2
STR	18	0	1
SCR	18	0	1	96	48	4
HLD	18	0	5	288
STR	18	192	1
SCR	18	192	1	96	48	4
TAP	19	0	2
HLD	19	0	6	288
STR	20	0	1
SCR	20	0	1	96	48	4
HLD	20	0	5	288
STR	20	192	1
SCR	20	192	1	96	48	4
HLD	21	0	2	288
STR	21	0	6
SI_	21	0	6	96	48	3
STR	21	192	5
SCL	21	192	5	96	48	3
STR	22	0	1
SCR	22	0	1	96	48	4
HLD	22	0	5	1440
STR	22	192	1
SCR	22	192	1	96	48	4
STR	23	0	1
SCR	23	0	1	96	48	4
STR	23	192	1
SCR	23	192	1	96	48	4
STR	24	0	0
SCR	24	0	0	96	48	4
STR	24	192	0
SCR	24	192	0	96	48	4
BST	25	0	0
SCR	25	0	0	96	48	4
BST	25	192	0
SCR	25	192	0	96	48	4
BRK	26	0	6
BRK	26	0	7
BRK	26	72	3
BRK	26	72	4
BRK	26	144	0
BRK	26	144	1
BST	26	192	0
SI_	26	192	0	96	48	5
BST	26	192	1
SI_	26	192	1	96	48	4
HLD	27	0	3	96
HLD	27	0	7	96
HLD	27	192	1	96
HLD	27	192	5	96
HLD	28	0	2	96
HLD	28	0	6	96
HLD	28	192	0	96
HLD	28	192	4	96
TAP	29	0	2
HLD	29	0	6	672
TAP	29	96	1
TAP	29	144	1
TAP	29	192	1
TAP	29	288	0
STR	30	0	1
SCR	30	0	1	96	48	4
TAP	30	96	1
STR	30	192	1
SCR	30	192	1	96	48	4
TAP	30	288	1
TAP	31	0	5
TAP	31	48	4
TAP	31	96	3
TAP	31	96	6
TAP	31	144	5
TAP	31	192	2
TAP	31	240	3
TAP	31	288	1
TAP	31	288	4
STR	31	336	2
SUR	31	336	2	96	144	4
TAP	32	48	6
TAP	32	96	6
TAP	32	192	7
TAP	32	288	7
TAP	32	336	0
TAP	33	0	6
TAP	33	48	7
TAP	33	96	0
TAP	33	96	5
TAP	33	144	6
TAP	33	192	1
TAP	33	240	0
TAP	33	288	2
TAP	33	288	7
TAP	33	336	0
STR	34	0	1
SCR	34	0	1	96	48	4
HLD	34	0	7	96
TAP	34	96	1
STR	34	192	1
SCR	34	192	1	96	48	4
HLD	34	192	7	96
TAP	34	288	1
TAP	35	0	6
TAP	35	0	7
TAP	35	96	6
TAP	35	96	7
TAP	35	192	0
TAP	35	192	1
TAP	35	288	0
TAP	35	288	1
TAP	36	0	1
TAP	36	0	4
TAP	36	48	2
TAP	36	96	3
TAP	36	96	6
TAP	36	144	5
HLD	36	192	1	96
TAP	36	192	4
TAP	36	288	7
TAP	36	336	0
HLD	37	0	6	96
TAP	37	96	0
TAP	37	144	7
HLD	37	192	1	96
TAP	37	288	7
TAP	37	336	0
STR	38	0	1
SCR	38	0	1	96	48	4
HLD	38	0	7	288
TAP	38	96	1
STR	38	192	1
SCR	38	192	1	96	48	4
TAP	38	288	1
HLD	39	0	6	96
TAP	39	96	4
TAP	39	144	3
HLD	39	192	1	96
TAP	39	288	3
TAP	39	336	4
TAP	40	0	5
TAP	40	48	6
TAP	40	96	7
TAP	40	144	0
TAP	40	192	1
TAP	40	192	6
TAP	40	288	2
TAP	40	336	3
TAP	41	0	1
TAP	41	0	4
TAP	41	96	5
TAP	41	144	4
TAP	41	192	3
TAP	41	192	6
TAP	41	288	3
TAP	41	288	4
TAP	42	0	3
TAP	42	48	4
TAP	42	96	3
TAP	42	144	4
BRK	42	240	2
BRK	42	240	5
BRK	42	288	2
BRK	42	288	5
HLD	43	0	1	96
TAP	43	96	0
HLD	43	192	6	96
TAP	43	288	7
TAP	44	0	5
TAP	44	48	4
TAP	44	96	3
HLD	44	144	2	96
TAP	44	240	0
TAP	44	288	0
STR	45	0	1
SI_	45	0	1	96	48	4
TAP	45	96	7
STR	45	192	6
SI_	45	192	6	96	48	3
TAP	45	240	0
TAP	45	288	0
STR	46	0	2
SI_	46	0	2	96	48	7
TAP	46	96	4
STR	46	192	5
SI_	46	192	5	96	48	0
TAP	46	240	3
TAP	46	288	3
HLD	47	0	2	96
TAP	47	96	3
HLD	47	192	5	96
TAP	47	288	4
TAP	48	0	4
TAP	48	48	3
TAP	48	96	2
HLD	48	144	1	144
TAP	48	240	0
TAP	48	288	0
STR	49	0	1
SCR	49	0	1	96	96	4
STR	49	96	4
SCR	49	96	4	96	96	7
STR	49	192	7
SCR	49	192	7	96	96	2
STR	49	288	2
SUR	49	288	2	96	192	5
TAP	50	240	7
TAP	50	288	7
TAP	51	0	5
TAP	51	48	4
TAP	51	96	3
TAP	51	96	5
TAP	51	192	2
TAP	51	240	3
TAP	51	288	2
TAP	51	288	4
TAP	52	0	5
TAP	52	48	4
TAP	52	96	5
STR	52	144	4
SI_	52	144	4	96	48	1
TAP	52	240	7
TAP	52	288	7
STR	53	0	0
SCR	53	0	0	96	48	3
STR	53	96	0
SCL	53	96	0	96	48	5
STR	53	192	0
SI_	53	192	0	96	48	4
TAP	53	288	0
STR	54	0	7
SCL	54	0	7	96	48	4
STR	54	96	7
SCR	54	96	7	96	48	2
STR	54	192	7
SI_	54	192	7	96	48	3
TAP	54	288	7
STR	55	0	2
SUR	55	0	2	96	120	4
TAP	55	192	6
TAP	55	288	0
TAP	55	288	7
STR	56	0	5
SUL	56	0	5	96	120	3
TAP	56	144	1
TAP	56	192	1
TAP	56	288	0
TAP	56	288	7
STR	57	0	0
SI_	57	0	0	96	48	4
STR	57	96	7
SI_	57	96	7	96	48	3
STR	57	192	1
SI_	57	192	1	96	48	5
STR	57	288	6
SCL	57	288	6	96	192	1
HLD	58	0	0	192
TAP	58	288	0
TAP	58	288	7
STR	59	0	1
SCR	59	0	1	96	48	4
HLD	59	0	5	672
TAP	59	96	1
STR	59	192	1
SCR	59	192	1	96	48	4
TAP	59	288	1
TAP	60	0	0
TAP	60	96	0
STR	60	192	1
SCR	60	192	1	96	48	4
TAP	60	288	1
HLD	61	0	6	192
TAP	61	96	7
HLD	61	192	5	192
TAP	61	288	4
TAP	62	0	6
TAP	62	48	7
TAP	62	96	6
TAP	62	144	7
STR	62	192	0
SI_	62	192	0	96	48	3
STR	62	192	6
SI_	62	192	6	96	48	3
STR	63	0	1
SCR	63	0	1	96	48	4
HLD	63	0	5	672
TAP	63	96	1
STR	63	192	1
SCR	63	192	1	96	48	4
TAP	63	288	1
TAP	64	0	0
TAP	64	48	0
TAP	64	96	0
STR	64	192	1
SCR	64	192	1	96	48	4
TAP	64	288	1
TAP	65	0	6
TAP	65	0	7
TAP	65	48	6
TAP	65	48	7
TAP	65	96	0
TAP	65	96	5
TAP	65	144	0
TAP	65	144	5
TAP	65	192	1
TAP	65	192	4
TAP	65	240	1
TAP	65	240	4
TAP	65	288	2
TAP	65	288	3
TAP	65	336	2
TAP	65	336	3
TAP	66	0	1
TAP	66	0	4
TAP	66	72	3
TAP	66	72	6
TAP	66	144	0
TAP	66	144	5
TAP	66	192	2
TAP	66	192	7
BRK	66	288	1
BRK	66	288	6
HLD	67	0	0	96
HLD	67	0	7	96
HLD	67	192	1	96
HLD	67	192	6	96
HLD	68	0	5	96
HLD	68	0	7	96
HLD	68	192	1	96
HLD	68	192	3	96
TAP	69	0	4
TAP	69	0	5
TAP	69	48	4
TAP	69	48	5
TAP	69	96	3
TAP	69	96	6
TAP	69	144	3
TAP	69	144	6
TAP	69	192	2
TAP	69	192	7
TAP	69	240	2
TAP	69	240	7
TAP	69	288	0
TAP	69	288	1
STR	70	0	1
SCR	70	0	1	96	48	4
HLD	70	0	7	288
TAP	70	96	1
STR	70	192	1
SCR	70	192	1	96	48	4
TAP	70	288	1
TAP	71	0	6
TAP	71	48	7
TAP	71	96	0
TAP	71	96	5
TAP	71	144	4
TAP	71	192	1
TAP	71	240	0
TAP	71	288	2
TAP	71	288	7
STR	71	336	6
SUL	71	336	6	96	144	3
TAP	72	48	1
TAP	72	96	1
TAP	72	192	0
TAP	72	288	1
TAP	72	336	0
STR	73	0	2
SCL	73	0	2	96	48	7
TAP	73	48	3
TAP	73	96	4
TAP	73	144	5
STR	73	192	6
SCL	73	192	6	96	48	3
TAP	73	240	7
TAP	73	288	0
TAP	73	336	1
STR	74	0	1
SCR	74	0	1	96	48	4
TAP	74	96	1
TAP	74	96	7
STR	74	192	1
SCR	74	192	1	96	48	4
TAP	74	288	1
TAP	74	288	7
HLD	75	0	6	48
HLD	75	0	7	48
HLD	75	96	0	48
HLD	75	96	5	48
HLD	75	192	0	48
HLD	75	192	1	48
TAP	75	288	2
TAP	75	288	7
STR	75	336	2
SUR	75	336	2	96	144	4
TAP	75	336	7
TAP	76	48	6
TAP	76	96	6
TAP	76	192	7
TAP	76	288	7
TAP	76	336	0
STR	77	0	1
SI_	77	0	1	96	48	4
TAP	77	96	7
TAP	77	144	7
STR	77	192	6
SI_	77	192	6	96	48	3
TAP	77	288	0
TAP	77	336	0
STR	78	0	1
SCR	78	0	1	96	48	4
HLD	78	0	5	288
TAP	78	96	1
STR	78	192	1
SCR	78	192	1	96	48	4
TAP	78	288	1
TAP	79	0	5
TAP	79	0	7
TAP	79	48	6
TAP	79	96	5
TAP	79	96	7
TAP	79	192	0
TAP	79	192	2
TAP	79	240	1
TAP	79	288	0
TAP	79	288	2
TAP	80	0	2
TAP	80	0	4
TAP	80	48	3
TAP	80	96	3
TAP	80	96	5
TAP	80	144	4
TAP	80	192	2
TAP	80	192	4
TAP	80	288	1
TAP	80	336	0
HLD	81	0	1	96
TAP	81	96	6
TAP	81	144	7
TAP	81	192	6
TAP	81	240	5
TAP	81	288	4
TAP	81	336	3
STR	82	0	2
SXR	82	0	2	96	144	4
STR	82	0	5
SXL	82	0	5	96	144	3
BRK	82	288	0
BRK	82	288	7
TAP	83	0	1
TAP	83	0	6
TAP	83	48	2
TAP	83	72	3
TAP	83	96	2
TAP	83	144	5
TAP	83	168	4
TAP	83	192	5
TAP	83	240	2
TAP	83	264	3
TAP	83	288	2
TAP	83	336	6
TAP	83	360	7
TAP	84	0	6
TAP	84	48	1
TAP	84	72	0
TAP	84	96	1
TAP	84	144	7
TAP	84	168	0
TAP	84	192	1
TAP	84	192	6
TAP	84	288	4
TAP	84	336	3
HLD	85	0	5	672
TAP	85	96	2
TAP	85	144	2
TAP	85	192	1
TAP	85	240	1
TAP	85	288	0
STR	86	0	0
SCR	86	0	0	96	48	4
STR	86	192	0
SCR	86	192	0	96	48	4
TAP	87	0	3
TAP	87	0	6
TAP	87	48	5
TAP	87	72	4
TAP	87	96	5
TAP	87	144	2
TAP	87	168	3
TAP	87	192	2
TAP	87	240	5
TAP	87	264	4
TAP	87	288	5
TAP	87	336	1
TAP	87	360	0
TAP	88	0	1
TAP	88	48	6
TAP	88	72	7
TAP	88	96	6
TAP	88	144	0
TAP	88	168	7
TAP	88	192	1
TAP	88	192	6
TAP	88	288	3
TAP	88	336	2
TAP	89	0	0
TAP	89	0	1
TAP	89	48	2
TAP	89	48	7
TAP	89	96	3
TAP	89	96	6
TAP	89	144	4
TAP	89	144	5
TAP	89	192	6
TAP	89	192	7
TAP	89	240	0
TAP	89	240	5
TAP	89	288	1
TAP	89	288	4
TAP	89	336	2
TAP	89	336	3
STR	90	0	1
SCR	90	0	1	96	48	4
TAP	90	96	1
TAP	90	96	7
STR	90	192	1
SCR	90	192	1	96	48	4
TAP	90	288	1
TAP	90	288	7
STR	91	0	7
SI_	91	0	7	96	48	3
STR	91	96	0
SI_	91	96	0	96	48	4
STR	91	192	5
SI_	91	192	5	96	48	7
TAP	91	288	3
STR	91	336	3
SXR	91	336	3	96	144	0
TAP	92	48	7
TAP	92	96	6
TAP	92	144	5
TAP	92	192	4
TAP	92	288	4
TAP	92	336	3
TAP	93	0	4
HLD	93	48	4	96
TAP	93	96	2
HLD	93	144	2	96
TAP	93	192	6
HLD	93	240	6	96
TAP	93	288	0
TAP	93	336	0
STR	94	0	0
SCR	94	0	0	96	48	4
HLD	94	0	7	288
STR	94	192	0
SCR	94	192	0	96	48	4
STR	95	0	7
SUR	95	0	7	96	48	4
TAP	95	96	0
STR	95	192	1
SCL	95	192	1	96	48	6
TAP	95	288	4
STR	95	336	4
SXL	95	336	4	96	144	7
TAP	96	48	0
TAP	96	96	1
TAP	96	144	2
TAP	96	192	3
TAP	96	288	3
TAP	96	336	4
HLD	97	0	5	288
TAP	97	96	6
TAP	97	192	7
TAP	97	288	0
TAP	97	336	5
HLD	98	0	2	288
TAP	98	96	1
TAP	98	192	0
TAP	98	288	7
STR	99	0	1
SCR	99	0	1	96	1728	4
HLD	99	0	6	288
HLD	100	0	7	288
HLD	101	0	0	288
HLD	102	0	1	288
HLD	103	0	2	288
TAP	104	0	3
TAP	104	24	4
TAP	104	48	3
TAP	104	72	4
TAP	104	96	3
TAP	104	120	4
TAP	104	144	3
TAP	104	168	4
TAP	104	192	3
BRK	105	0	1
BRK	105	0	5

T_REC_TAP	426
T_REC_BRK	19
T_REC_XTP	0
T_REC_HLD	68
T_REC_XHO	0
T_REC_STR	89
T_REC_BST	4
T_REC_XST	0
T_REC_TTP	0
T_REC_THO	0
T_REC_SLD	93
T_REC_ALL	699
T_NUM_TAP	515
T_NUM_BRK	23
T_NUM_HLD	68
T_NUM_SLD	93
T_NUM_ALL	699
T_JUDGE_TAP	538
T_JUDGE_HLD	297
T_JUDGE_SLD	93
T_JUDGE_ALL	928
TTM_EACHPAIRS	123
TTM_SCR_TAP	257500
TTM_SCR_BRK	59800
TTM_SCR_HLD	68000
TTM_SCR_SLD	139500
TTM_SCR_ALL	524800
TTM_SCR_S	506850
TTM_SCR_SS	522500
TTM_RAT_ACV	10044

