VERSION	0.00.00	1.03.00
FES_MODE	0
BPM_DEF	183.000	183.000	183.000	183.000
MET_DEF	4	4
RESOLUTION	384
CLK_DEF	384
COMPATIBLE_CODE	MA2

BPM	0	0	183.000

TAP	1	0	0
TAP	1	192	1
BRK	2	0	0
BRK	2	96	1
BRK	2	192	2
TAP	2	288	3
TAP	2	288	4
HLD	3	0	5	768
TAP	3	96	4
TAP	3	288	4
TAP	4	96	3
TAP	4	288	3
HLD	5	0	2	768
TAP	5	96	3
TAP	5	288	3
TAP	6	96	4
TAP	6	288	4
HLD	7	0	5	768
TAP	7	96	4
TAP	7	288	2
TAP	8	96	4
TAP	8	288	2
TAP	9	0	2
TAP	9	96	2
TAP	9	96	4
TAP	9	288	3
TAP	9	288	5
TAP	10	96	3
TAP	10	96	4
TAP	10	192	3
TAP	10	192	4
STR	11	0	6
SI_	11	0	6	96	48	4
STR	11	192	6
SI_	11	192	6	96	48	4
STR	12	0	1
SI_	12	0	1	96	48	3
STR	12	192	1
SI_	12	192	1	96	48	3
TAP	13	0	2
STR	13	0	6
SI_	13	0	6	96	48	4
TAP	13	192	2
STR	13	192	6
SI_	13	192	6	96	48	4
STR	14	0	1
SI_	14	0	1	96	48	3
TAP	14	0	5
STR	14	192	1
SI_	14	192	1	96	48	3
TAP	14	192	5
HLD	15	0	2	288
STR	15	0	6
SCL	15	0	6	96	48	4
STR	15	192	6
SCL	15	192	6	96	48	4
STR	16	0	1
SCR	16	0	1	96	48	3
HLD	16	0	5	288
STR	16	192	1
SCR	16	192	1	96	48	3
HLD	17	0	6	192
TAP	17	192	4
STR	18	0	1
SCR	18	0	1	96	48	3
HLD	18	0	5	288
STR	18	192	1
SCR	18	192	1	96	48	3
HLD	19	0	6	192
TAP	19	192	5
STR	20	0	1
SI_	20	0	1	96	48	4
HLD	20	0	5	288
STR	20	192	1
SI_	20	192	1	96	48	4
TAP	21	0	3
STR	21	0	6
SI_	21	0	6	96	48	4
TAP	21	192	2
STR	21	192	5
SI_	21	192	5	96	48	3
STR	22	0	1
SI_	22	0	1	96	48	3
HLD	22	0	4	288
STR	22	192	1
SCR	22	192	1	96	48	3
STR	23	0	1
SI_	23	0	1	96	48	3
HLD	23	0	5	1056
STR	23	192	1
SCR	23	192	1	96	48	3
STR	24	0	1
SI_	24	0	1	96	48	4
STR	24	192	1
SCR	24	192	1	96	48	4
STR	25	0	0
SI_	25	0	0	96	48	3
STR	25	192	0
SCR	25	192	0	96	48	3
TAP	26	0	4
TAP	26	72	3
TAP	26	72	5
TAP	26	144	2
TAP	26	144	6
BRK	26	192	2
BRK	26	192	6
HLD	27	0	2	96
HLD	27	0	3	96
HLD	27	192	4	96
HLD	27	192	5	96
HLD	28	0	2	96
HLD	28	0	3	96
TAP	28	192	1
TAP	28	192	4
TAP	29	0	3
TAP	29	0	4
TAP	29	96	2
TAP	29	96	5
TAP	29	192	1
TAP	29	192	6
TAP	29	288	0
TAP	29	288	7
STR	30	0	1
SI_	30	0	1	96	48	4
HLD	30	0	5	288
STR	30	192	1
SI_	30	192	1	96	48	4
BRK	31	0	3
BRK	31	0	5
TAP	31	96	0
TAP	31	96	1
TAP	31	192	2
TAP	31	192	4
TAP	31	288	6
TAP	31	288	7
TAP	32	0	4
TAP	32	0	5
TAP	32	96	3
TAP	32	96	6
TAP	32	144	3
TAP	32	144	6
HLD	32	192	3	96
HLD	32	192	6	96
TAP	33	0	0
TAP	33	0	7
TAP	33	96	1
TAP	33	96	3
TAP	33	192	4
TAP	33	192	6
TAP	33	288	1
TAP	33	288	5
TAP	33	336	1
TAP	33	336	5
STR	34	0	1
SCR	34	0	1	96	48	4
HLD	34	0	5	288
STR	34	192	1
SCR	34	192	1	96	48	4
TAP	35	0	3
TAP	35	0	6
TAP	35	96	5
TAP	35	192	1
TAP	35	192	4
TAP	35	288	2
TAP	36	0	4
TAP	36	0	5
TAP	36	96	0
TAP	36	144	0
TAP	36	192	7
TAP	36	288	1
TAP	36	288	6
TAP	37	0	1
TAP	37	0	4
TAP	37	96	2
TAP	37	96	3
TAP	37	192	3
TAP	37	192	6
TAP	37	288	4
TAP	37	288	5
STR	38	0	1
SCR	38	0	1	96	48	4
HLD	38	0	6	288
STR	38	192	1
SCR	38	192	1	96	48	4
TAP	39	0	3
TAP	39	0	6
TAP	39	96	0
TAP	39	192	1
TAP	39	192	4
TAP	39	288	7
TAP	40	0	1
STR	40	0	6
SUR	40	0	6	96	96	3
TAP	40	288	0
TAP	40	288	1
TAP	41	0	2
TAP	41	0	3
TAP	41	96	1
TAP	41	96	4
TAP	41	192	4
TAP	41	192	5
TAP	41	288	3
STR	41	288	6
SCR	41	288	6	96	192	3
TAP	42	288	2
TAP	42	288	5
HLD	43	0	2	96
TAP	43	96	3
HLD	43	192	5	96
TAP	43	288	4
HLD	44	0	2	96
TAP	44	96	3
TAP	44	192	3
TAP	44	192	4
TAP	44	288	3
TAP	44	288	4
HLD	45	0	5	96
TAP	45	96	4
HLD	45	192	2	96
TAP	45	288	3
TAP	46	0	1
TAP	46	0	3
TAP	46	96	2
TAP	46	96	4
TAP	46	192	3
TAP	46	192	5
TAP	46	288	7
HLD	47	0	1	96
TAP	47	96	3
HLD	47	192	6	96
TAP	47	288	4
HLD	48	0	1	96
TAP	48	96	3
TAP	48	192	0
TAP	48	192	7
TAP	48	288	0
TAP	48	288	7
HLD	49	0	2	96
HLD	49	96	3	96
HLD	49	192	4	96
STR	49	288	5
SCR	49	288	5	96	192	2
TAP	50	288	0
TAP	50	288	7
HLD	51	0	1	96
HLD	51	96	2	96
HLD	51	192	3	96
HLD	51	288	4	96
HLD	52	0	5	96
HLD	52	96	4	96
HLD	52	192	3	96
TAP	52	288	4
HLD	53	0	6	96
HLD	53	96	5	96
HLD	53	192	4	96
HLD	53	288	3	96
HLD	54	0	2	96
HLD	54	96	3	96
HLD	54	192	4	96
TAP	54	288	5
TAP	55	0	4
STR	55	0	5
SCR	55	0	5	96	96	0
TAP	55	288	2
TAP	55	288	3
TAP	56	0	4
STR	56	0	5
SCR	56	0	5	96	96	0
TAP	56	288	2
TAP	56	288	3
TAP	57	0	4
STR	57	0	6
SCR	57	0	6	96	96	1
TAP	57	288	2
TAP	57	288	4
HLD	58	0	6	96
HLD	58	0	7	96
BRK	58	192	0
BRK	58	192	5
STR	59	0	1
SI_	59	0	1	96	48	4
HLD	59	0	5	288
STR	59	192	1
SI_	59	192	1	96	48	4
HLD	60	0	3	96
HLD	60	0	6	96
HLD	60	192	3	96
HLD	60	192	6	96
HLD	61	0	2	288
STR	61	0	6
SI_	61	0	6	96	48	3
STR	61	192	6
SI_	61	192	6	96	48	3
HLD	62	0	1	96
HLD	62	0	4	96
BRK	62	192	0
BRK	62	192	7
STR	63	0	1
SCR	63	0	1	96	48	4
HLD	63	0	5	288
STR	63	192	1
SCR	63	192	1	96	48	4
HLD	64	0	3	96
HLD	64	0	6	96
HLD	64	192	3	96
HLD	64	192	6	96
TAP	65	0	0
TAP	65	0	7
TAP	65	48	0
TAP	65	48	7
TAP	65	96	0
TAP	65	96	7
TAP	65	192	1
TAP	65	192	6
TAP	65	288	3
STR	65	288	4
SCR	65	288	4	96	192	3
TAP	66	288	3
TAP	66	288	4
HLD	67	0	4	96
HLD	67	0	6	96
HLD	67	192	1	96
HLD	67	192	3	96
TAP	68	0	4
TAP	68	0	6
TAP	68	96	3
TAP	68	96	4
TAP	68	192	1
TAP	68	192	3
STR	68	288	3
SCL	68	288	3	96	192	0
STR	68	288	4
SCR	68	288	4	96	192	7
TAP	69	288	0
TAP	69	288	7
STR	70	0	0
SCR	70	0	0	96	48	3
HLD	70	0	6	288
STR	70	192	0
SCR	70	192	0	96	48	3
BRK	71	0	4
BRK	71	0	6
TAP	71	96	0
TAP	71	96	7
TAP	71	192	1
TAP	71	192	3
TAP	71	288	0
TAP	71	288	7
TAP	72	0	4
TAP	72	0	6
TAP	72	96	1
TAP	72	96	5
TAP	72	144	1
TAP	72	144	5
HLD	72	192	1	96
HLD	72	192	5	96
TAP	73	0	1
TAP	73	0	3
TAP	73	96	4
TAP	73	96	6
TAP	73	192	0
TAP	73	192	5
TAP	73	288	0
TAP	73	288	7
TAP	73	336	0
TAP	73	336	7
STR	74	0	0
SUR	74	0	0	96	48	4
HLD	74	0	7	288
STR	74	192	0
SUR	74	192	0	96	48	4
TAP	75	0	7
TAP	75	96	1
TAP	75	96	3
TAP	75	192	0
TAP	75	288	4
TAP	75	288	6
STR	76	0	3
SI_	76	0	3	96	96	6
SCL	76	0	3	96	96	0
TAP	76	0	4
TAP	76	288	7
TAP	77	0	0
TAP	77	0	7
TAP	77	96	4
TAP	77	96	5
TAP	77	192	0
TAP	77	192	7
TAP	77	288	2
TAP	77	288	3
BST	78	0	1
SUR	78	0	1	96	48	5
HLD	78	0	6	288
BST	78	192	1
SUR	78	192	1	96	48	5
TAP	79	0	6
TAP	79	0	7
TAP	79	96	2
TAP	79	96	3
TAP	79	192	0
TAP	79	192	1
TAP	79	288	4
TAP	79	288	5
HLD	80	0	2	192
STR	80	0	6
SUR	80	0	6	96	96	3
TAP	80	288	4
TAP	80	288	5
TAP	81	0	0
TAP	81	0	6
TAP	81	96	2
TAP	81	96	3
TAP	81	192	1
TAP	81	192	7
STR	81	288	4
SCR	81	288	4	96	192	3
SUR	81	288	4	96	192	3
TAP	81	288	5
BRK	82	288	1
BRK	82	288	6
TAP	83	0	5
TAP	83	48	5
TAP	83	96	4
TAP	83	96	6
TAP	83	192	2
TAP	83	240	2
TAP	83	288	1
TAP	83	288	3
TAP	84	0	6
TAP	84	48	6
TAP	84	96	5
TAP	84	96	7
HLD	84	192	1	96
HLD	84	192	6	96
TAP	85	0	2
TAP	85	48	3
TAP	85	96	1
TAP	85	96	4
TAP	85	192	5
TAP	85	240	4
TAP	85	288	3
TAP	85	288	6
BST	86	0	1
SUR	86	0	1	96	48	5
HLD	86	0	7	288
BST	86	192	1
SUR	86	192	1	96	48	5
TAP	87	0	6
TAP	87	48	6
TAP	87	96	5
TAP	87	96	7
TAP	87	192	1
TAP	87	240	1
TAP	87	288	0
TAP	87	288	2
TAP	88	0	5
TAP	88	48	5
TAP	88	96	4
TAP	88	96	6
HLD	88	192	1	96
HLD	88	192	5	96
TAP	89	0	6
TAP	89	48	7
TAP	89	96	0
TAP	89	96	5
TAP	89	192	1
TAP	89	240	0
TAP	89	288	2
TAP	89	288	7
BST	90	0	0
SV_	90	0	0	96	48	5
HLD	90	0	6	288
BST	90	192	0
SV_	90	192	0	96	48	5
TAP	91	0	6
TAP	91	0	7
TAP	91	96	2
TAP	91	96	4
TAP	91	192	0
TAP	91	192	1
TAP	91	288	3
TAP	91	288	5
STR	92	0	4
SCR	92	0	4	96	96	0
SUR	92	0	4	96	96	1
TAP	92	0	6
TAP	92	288	1
TAP	92	288	3
TAP	93	0	4
HLD	93	0	5	96
TAP	93	96	7
HLD	93	192	2	96
TAP	93	192	3
TAP	93	288	0
BST	94	0	0
SV_	94	0	0	96	48	5
HLD	94	0	7	288
BST	94	192	0
SV_	94	192	0	96	48	5
TAP	95	0	4
HLD	95	0	6	96
TAP	95	96	7
HLD	95	192	1	96
TAP	95	192	3
TAP	95	288	0
HLD	96	0	1	192
STR	96	0	7
SUR	96	0	7	96	96	4
BST	96	288	0
SCR	96	288	0	96	192	3
TAP	96	288	7
BST	97	288	0
SUR	97	288	0	96	192	4
TAP	97	288	7
BRK	98	288	0
TAP	98	288	7
HLD	99	0	1	336
HLD	99	0	6	1824
HLD	100	0	2	336
HLD	101	0	3	336
HLD	102	0	4	336
HLD	103	0	5	288
TAP	104	0	0
TAP	104	0	7
TAP	104	48	0
TAP	104	48	7
TAP	104	96	0
TAP	104	96	7
TAP	104	144	0
TAP	104	144	7
TAP	104	192	0
TAP	104	192	7
BRK	105	0	1
BRK	105	0	5

T_REC_TAP	291
T_REC_BRK	18
T_REC_XTP	0
T_REC_HLD	90
T_REC_XHO	0
T_REC_STR	56
T_REC_BST	10
T_REC_XST	0
T_REC_TTP	0
T_REC_THO	0
T_REC_SLD	69
T_REC_ALL	534
T_NUM_TAP	347
T_NUM_BRK	28
T_NUM_HLD	90
T_NUM_SLD	69
T_NUM_ALL	534
T_JUDGE_TAP	375
T_JUDGE_HLD	378
T_JUDGE_SLD	69
T_JUDGE_ALL	822
TTM_EACHPAIRS	169
TTM_SCR_TAP	173500
TTM_SCR_BRK	72800
TTM_SCR_HLD	90000
TTM_SCR_SLD	103500
TTM_SCR_ALL	439800
TTM_SCR_S	423900
TTM_SCR_SS	437000
TTM_RAT_ACV	10064

