VERSION	0.00.00	1.03.00
FES_MODE	0
BPM_DEF	183.000	183.000	183.000	183.000
MET_DEF	4	4
RESOLUTION	384
CLK_DEF	384
COMPATIBLE_CODE	MA2

BPM	0	0	183.000

TAP	3	0	2
TAP	3	192	2
TAP	3	192	3
TAP	4	0	2
TAP	4	96	2
TAP	4	192	2
TAP	4	192	3
TAP	5	0	5
TAP	5	192	4
TAP	5	192	5
TAP	6	0	5
TAP	6	96	5
TAP	6	192	4
TAP	6	192	5
TAP	7	0	6
TAP	7	192	6
TAP	7	192	7
TAP	8	0	6
TAP	8	96	6
TAP	8	192	6
TAP	8	192	7
TAP	9	0	1
TAP	9	192	0
TAP	9	192	1
TAP	10	0	1
TAP	10	96	1
TAP	10	192	0
TAP	10	192	1
HLD	11	0	2	96
TAP	11	96	3
HLD	11	192	2	96
TAP	11	288	3
HLD	12	0	2	192
TAP	12	96	3
TAP	12	192	3
HLD	13	0	5	96
TAP	13	96	4
HLD	13	192	5	96
TAP	13	288	4
HLD	14	0	5	192
TAP	14	96	4
TAP	14	192	4
HLD	15	0	1	96
TAP	15	96	0
HLD	15	192	1	96
TAP	15	288	0
HLD	16	0	1	192
TAP	16	96	0
TAP	16	192	0
STR	17	0	0
SCR	17	0	0	96	192	4
HLD	18	0	5	192
TAP	18	96	4
TAP	18	192	4
STR	19	0	5
SCR	19	0	5	96	192	1
HLD	20	0	2	192
TAP	20	96	3
TAP	20	192	3
HLD	21	0	1	96
TAP	21	96	0
HLD	21	192	1	96
TAP	21	288	0
HLD	22	0	1	192
TAP	22	96	0
TAP	22	192	0
HLD	23	0	2	96
TAP	23	96	3
HLD	23	192	5	96
TAP	23	288	4
HLD	24	0	6	96
TAP	24	96	7
HLD	24	192	1	96
TAP	24	288	0
TAP	25	0	0
TAP	25	0	7
TAP	25	96	1
TAP	25	96	6
TAP	25	192	2
TAP	25	192	5
TAP	25	288	3
TAP	25	288	4
HLD	26	0	2	96
HLD	26	0	5	96
BRK	26	192	2
BRK	26	192	5
HLD	27	0	1	192
TAP	27	192	0
TAP	28	0	1
TAP	28	96	0
TAP	28	192	2
TAP	28	192	7
TAP	29	0	7
TAP	29	96	6
TAP	29	192	5
TAP	29	288	4
HLD	30	0	3	192
TAP	30	96	4
TAP	30	192	4
HLD	31	0	5	192
TAP	31	192	4
TAP	32	0	5
TAP	32	96	4
TAP	32	192	3
TAP	32	192	6
TAP	33	0	3
TAP	33	96	2
TAP	33	192	1
TAP	33	288	0
HLD	34	0	7	192
TAP	34	96	0
TAP	34	192	0
TAP	35	0	1
TAP	35	96	0
TAP	35	96	1
TAP	35	192	6
TAP	35	288	6
TAP	35	288	7
TAP	36	0	0
TAP	36	0	7
TAP	36	96	0
TAP	36	96	7
TAP	36	192	1
TAP	36	192	6
TAP	37	0	2
TAP	37	96	3
TAP	37	192	5
TAP	37	288	4
HLD	38	0	2	96
TAP	38	96	3
HLD	38	192	2	96
TAP	38	288	3
TAP	39	0	5
TAP	39	96	4
TAP	39	96	5
TAP	39	192	2
TAP	39	288	2
TAP	39	288	3
TAP	40	0	3
TAP	40	0	4
TAP	40	96	3
TAP	40	96	4
TAP	40	192	2
TAP	40	192	5
TAP	41	0	6
TAP	41	96	7
TAP	41	192	1
TAP	41	288	0
TAP	42	0	0
TAP	42	0	7
TAP	42	96	0
TAP	42	96	7
BRK	42	192	1
BRK	42	192	6
TAP	43	0	2
TAP	43	0	3
TAP	43	192	4
TAP	43	192	5
TAP	44	0	3
TAP	44	96	2
TAP	44	192	1
TAP	44	288	0
TAP	45	0	7
TAP	45	96	7
TAP	45	192	6
TAP	45	288	6
HLD	46	0	7	192
TAP	46	192	0
TAP	47	0	6
TAP	47	0	7
TAP	47	192	0
TAP	47	192	1
TAP	48	0	7
TAP	48	96	6
TAP	48	192	5
TAP	48	288	4
TAP	49	0	3
TAP	49	96	3
TAP	49	192	2
TAP	49	288	2
HLD	50	0	3	192
TAP	50	192	4
TAP	51	0	2
TAP	51	96	2
TAP	51	96	3
TAP	51	192	2
TAP	51	288	2
TAP	51	288	3
TAP	52	0	4
TAP	52	96	5
TAP	52	192	6
TAP	52	288	7
TAP	53	0	0
TAP	53	96	0
TAP	53	192	1
TAP	53	288	1
HLD	54	0	2	192
TAP	54	192	3
TAP	55	0	5
TAP	55	96	4
TAP	55	96	5
TAP	55	192	5
TAP	55	288	4
TAP	55	288	5
TAP	56	0	3
TAP	56	96	2
TAP	56	192	1
TAP	56	288	0
TAP	57	0	7
TAP	57	96	7
TAP	57	192	6
TAP	57	288	6
HLD	58	0	5	192
TAP	58	192	4
STR	59	0	3
SI_	59	0	3	96	192	0
STR	59	0	4
SI_	59	0	4	96	192	7
TAP	60	0	0
TAP	60	0	7
TAP	60	96	0
TAP	60	96	7
BRK	60	192	1
BRK	60	192	6
HLD	61	0	6	192
TAP	61	96	7
TAP	61	192	7
HLD	62	0	1	192
TAP	62	96	0
TAP	62	192	0
STR	63	0	0
SI_	63	0	0	96	192	3
STR	63	0	7
SI_	63	0	7	96	192	4
TAP	64	0	3
TAP	64	0	4
TAP	64	96	3
TAP	64	96	4
BRK	64	192	2
BRK	64	192	5
TAP	65	0	3
TAP	65	0	4
TAP	65	96	3
TAP	65	96	4
TAP	65	192	2
TAP	65	192	5
TAP	65	288	2
TAP	65	288	5
HLD	66	0	1	96
HLD	66	0	6	96
BRK	66	192	1
BRK	66	192	6
HLD	67	0	5	192
TAP	67	192	4
TAP	68	0	5
TAP	68	96	4
TAP	68	192	3
TAP	68	192	6
TAP	69	0	3
TAP	69	96	2
TAP	69	192	1
TAP	69	288	0
HLD	70	0	7	192
TAP	70	96	0
TAP	70	192	0
HLD	71	0	1	192
TAP	71	192	0
TAP	72	0	1
TAP	72	96	0
TAP	72	192	2
TAP	72	192	7
TAP	73	0	7
TAP	73	96	6
TAP	73	192	5
TAP	73	288	4
HLD	74	0	3	192
TAP	74	96	4
TAP	74	192	4
TAP	75	0	5
TAP	75	96	4
TAP	75	96	5
TAP	75	192	2
TAP	75	288	2
TAP	75	288	3
TAP	76	0	3
TAP	76	0	4
TAP	76	96	3
TAP	76	96	4
TAP	76	192	2
TAP	76	192	5
TAP	77	0	6
TAP	77	96	7
TAP	77	192	1
TAP	77	288	0
HLD	78	0	6	96
TAP	78	96	7
HLD	78	192	1	96
TAP	78	288	0
TAP	79	0	1
TAP	79	96	0
TAP	79	96	1
TAP	79	192	6
TAP	79	288	6
TAP	79	288	7
TAP	80	0	0
TAP	80	0	7
TAP	80	96	0
TAP	80	96	7
TAP	80	192	1
TAP	80	192	6
TAP	81	0	2
TAP	81	96	3
TAP	81	192	5
TAP	81	288	4
TAP	82	0	3
TAP	82	0	4
TAP	82	96	3
TAP	82	96	4
BRK	82	192	2
BRK	82	192	5
TAP	83	0	0
TAP	83	0	1
TAP	83	96	0
TAP	83	96	1
TAP	83	192	2
TAP	83	192	7
TAP	83	288	2
TAP	83	288	7
TAP	84	0	0
TAP	84	0	1
TAP	84	96	2
TAP	84	96	7
BRK	84	192	3
BRK	84	192	6
TAP	85	0	4
TAP	85	0	5
TAP	85	96	4
TAP	85	96	5
TAP	85	192	3
TAP	85	192	6
TAP	85	288	3
TAP	85	288	6
STR	86	0	4
SI_	86	0	4	96	192	1
STR	86	0	5
SI_	86	0	5	96	192	0
TAP	87	0	6
TAP	87	0	7
TAP	87	96	6
TAP	87	96	7
TAP	87	192	0
TAP	87	192	5
TAP	87	288	0
TAP	87	288	5
TAP	88	0	6
TAP	88	0	7
TAP	88	96	0
TAP	88	96	5
BRK	88	192	1
BRK	88	192	4
TAP	89	0	2
TAP	89	0	3
TAP	89	96	2
TAP	89	96	3
TAP	89	192	1
TAP	89	192	4
TAP	89	288	1
TAP	89	288	4
STR	90	0	2
SI_	90	0	2	96	192	7
STR	90	0	3
SI_	90	0	3	96	192	6
TAP	91	0	6
TAP	91	0	7
TAP	91	96	6
TAP	91	96	7
TAP	91	192	0
TAP	91	192	1
TAP	91	288	0
TAP	91	288	1
TAP	92	0	0
TAP	92	0	7
TAP	92	96	0
TAP	92	96	7
BRK	92	192	1
BRK	92	192	6
TAP	93	0	0
TAP	93	0	1
TAP	93	96	0
TAP	93	96	1
TAP	93	192	6
TAP	93	192	7
TAP	93	288	6
TAP	93	288	7
STR	94	0	0
SI_	94	0	0	96	192	3
STR	94	0	7
SI_	94	0	7	96	192	4
TAP	95	0	2
TAP	95	0	3
TAP	95	96	2
TAP	95	96	3
TAP	95	192	4
TAP	95	192	5
TAP	95	288	4
TAP	95	288	5
TAP	96	0	3
TAP	96	0	4
TAP	96	96	3
TAP	96	96	4
BRK	96	192	2
BRK	96	192	5
HLD	97	0	1	192
HLD	97	192	0	192
HLD	98	0	7	192
TAP	98	192	6
STR	99	0	4
SXR	99	0	4	96	576	1
STR	99	0	5
SXL	99	0	5	96	576	0
HLD	101	0	7	384
HLD	102	0	6	384
HLD	103	0	5	192
TAP	103	192	4
BRK	104	0	4
BRK	104	0	5
BRK	104	192	2
BRK	104	192	3
STR	105	0	5
SCR	105	0	5	96	1248	2
BRK	109	72	2
BRK	109	72	5

T_REC_TAP	330
T_REC_BRK	26
T_REC_XTP	0
T_REC_HLD	46
T_REC_XHO	0
T_REC_STR	15
T_REC_BST	0
T_REC_XST	0
T_REC_TTP	0
T_REC_THO	0
T_REC_SLD	15
T_REC_ALL	432
T_NUM_TAP	345
T_NUM_BRK	26
T_NUM_HLD	46
T_NUM_SLD	15
T_NUM_ALL	432
T_JUDGE_TAP	371
T_JUDGE_HLD	152
T_JUDGE_SLD	15
T_JUDGE_ALL	538
TTM_EACHPAIRS	113
TTM_SCR_TAP	172500
TTM_SCR_BRK	67600
TTM_SCR_HLD	46000
TTM_SCR_SLD	22500
TTM_SCR_ALL	308600
TTM_SCR_S	296850
TTM_SCR_SS	306000
TTM_RAT_ACV	10084

