VERSION	0.00.00	1.03.00
FES_MODE	0
BPM_DEF	183.000	183.000	183.000	183.000
MET_DEF	4	4
RESOLUTION	384
CLK_DEF	384
COMPATIBLE_CODE	MA2

BPM	0	0	183.000

TAP	3	0	3
TAP	3	192	3
TAP	4	0	3
TAP	4	96	3
TAP	4	192	3
TAP	5	0	4
TAP	5	192	4
TAP	6	0	4
TAP	6	96	4
TAP	6	192	4
TAP	7	0	3
TAP	7	192	3
TAP	8	0	3
TAP	8	96	3
TAP	8	192	3
TAP	9	0	4
TAP	9	192	4
TAP	10	0	4
TAP	10	96	4
TAP	10	192	4
HLD	11	0	3	192
HLD	12	0	3	192
HLD	13	0	2	192
HLD	14	0	2	192
HLD	15	0	1	192
TAP	16	0	1
TAP	16	192	1
STR	17	0	0
SI_	17	0	0	96	288	3
HLD	19	0	4	192
TAP	20	0	4
TAP	20	192	4
HLD	21	0	5	192
TAP	22	0	5
TAP	22	192	5
HLD	23	0	6	192
HLD	24	0	6	192
TAP	25	0	7
TAP	25	192	7
TAP	26	0	0
BRK	26	192	0
HLD	27	0	0	192
HLD	27	0	1	192
HLD	28	0	6	192
HLD	28	0	7	192
TAP	29	0	0
TAP	29	96	0
TAP	29	192	0
BRK	30	0	0
BRK	30	192	0
TAP	31	0	1
TAP	31	96	1
TAP	31	192	1
TAP	32	0	2
TAP	32	96	2
TAP	32	192	2
TAP	33	0	3
TAP	33	96	4
TAP	33	192	3
TAP	34	0	3
TAP	34	0	4
TAP	34	96	3
TAP	34	96	4
TAP	34	192	3
TAP	34	192	4
TAP	35	0	5
TAP	35	96	5
TAP	35	192	5
TAP	36	0	6
TAP	36	96	6
TAP	36	192	6
TAP	37	0	7
TAP	37	96	7
TAP	37	192	7
BRK	38	0	0
BRK	38	192	0
TAP	39	0	7
TAP	39	96	7
TAP	39	192	7
TAP	40	0	6
TAP	40	96	6
TAP	40	192	6
TAP	41	0	5
TAP	41	96	5
TAP	41	192	4
TAP	41	288	4
TAP	42	0	3
TAP	42	0	4
HLD	43	0	3	192
TAP	44	0	3
TAP	44	192	3
TAP	45	0	4
TAP	45	96	4
TAP	45	192	4
TAP	46	0	5
TAP	46	96	5
TAP	46	192	5
HLD	47	0	6	192
TAP	48	0	7
TAP	48	192	7
TAP	49	0	0
TAP	49	96	0
TAP	49	192	0
HLD	50	0	0	192
HLD	50	0	1	192
HLD	51	0	2	192
TAP	52	0	3
TAP	52	192	3
TAP	53	0	4
TAP	53	96	4
TAP	53	192	4
TAP	54	0	5
TAP	54	96	5
TAP	54	192	5
HLD	55	0	4	192
HLD	55	0	5	192
HLD	56	0	2	192
HLD	56	0	3	192
TAP	57	0	4
TAP	57	96	3
TAP	57	192	4
HLD	58	0	3	192
HLD	58	0	4	192
TAP	59	0	2
TAP	59	192	2
TAP	60	0	2
TAP	60	96	2
TAP	60	192	2
TAP	61	0	3
TAP	61	0	4
TAP	61	192	3
TAP	61	192	4
TAP	62	0	3
TAP	62	96	4
TAP	62	192	3
TAP	63	0	5
TAP	63	192	5
TAP	64	0	5
TAP	64	96	5
TAP	64	192	5
TAP	65	0	3
TAP	65	96	4
TAP	65	192	3
TAP	66	0	3
TAP	66	0	4
TAP	66	96	3
TAP	66	96	4
BRK	66	192	3
BRK	66	192	4
TAP	67	0	2
TAP	67	192	2
TAP	68	0	1
TAP	68	192	1
TAP	69	0	0
TAP	69	96	0
TAP	69	192	0
BRK	70	0	0
BRK	70	192	0
HLD	71	0	1	192
TAP	72	0	2
TAP	72	96	2
TAP	72	192	2
TAP	73	0	3
TAP	73	96	4
TAP	73	192	3
TAP	74	0	3
TAP	74	0	4
TAP	74	96	3
TAP	74	96	4
BRK	74	192	3
BRK	74	192	4
TAP	75	0	5
TAP	75	96	5
TAP	75	192	5
TAP	76	0	6
TAP	76	96	6
TAP	76	192	6
TAP	77	0	7
TAP	77	96	0
TAP	77	192	7
BRK	78	0	0
BRK	78	192	0
HLD	79	0	7	192
TAP	80	0	6
TAP	80	96	6
TAP	80	192	6
TAP	81	0	5
TAP	81	96	5
TAP	81	192	5
HLD	82	0	3	192
HLD	82	0	4	192
TAP	83	0	2
TAP	83	0	3
TAP	83	96	2
TAP	83	96	3
TAP	83	192	2
TAP	83	192	3
TAP	84	0	4
TAP	84	0	5
TAP	84	96	4
TAP	84	96	5
TAP	84	192	4
TAP	84	192	5
TAP	85	0	6
TAP	85	96	6
TAP	85	192	7
TAP	85	288	7
BRK	86	0	0
BRK	86	192	0
HLD	87	0	0	192
HLD	87	0	1	192
TAP	88	0	2
TAP	88	96	2
TAP	88	192	2
TAP	89	0	3
TAP	89	96	4
TAP	89	192	3
TAP	90	0	3
TAP	90	0	4
TAP	90	96	3
TAP	90	96	4
BRK	90	192	3
BRK	90	192	4
TAP	91	0	2
TAP	91	96	2
TAP	91	192	2
TAP	92	0	1
TAP	92	96	1
TAP	92	192	1
TAP	93	0	0
TAP	93	96	0
TAP	93	192	7
TAP	93	288	7
BRK	94	0	0
BRK	94	192	0
HLD	95	0	6	192
HLD	95	0	7	192
TAP	96	0	5
TAP	96	96	5
TAP	96	192	5
HLD	97	0	4	192
HLD	97	0	5	192
HLD	98	0	2	192
HLD	98	0	3	192
STR	99	0	3
SI_	99	0	3	96	288	0
STR	99	0	4
SI_	99	0	4	96	288	7
STR	101	0	0
SI_	101	0	0	96	288	3
STR	101	0	7
SI_	101	0	7	96	288	4
HLD	103	0	2	192
HLD	103	0	5	192
TAP	104	0	3
TAP	104	96	4
TAP	104	192	3
BRK	105	0	2
BRK	105	0	5

T_REC_TAP	190
T_REC_BRK	21
T_REC_XTP	0
T_REC_HLD	38
T_REC_XHO	0
T_REC_STR	5
T_REC_BST	0
T_REC_XST	0
T_REC_TTP	0
T_REC_THO	0
T_REC_SLD	5
T_REC_ALL	259
T_NUM_TAP	195
T_NUM_BRK	21
T_NUM_HLD	38
T_NUM_SLD	5
T_NUM_ALL	259
T_JUDGE_TAP	216
T_JUDGE_HLD	152
T_JUDGE_SLD	5
T_JUDGE_ALL	373
TTM_EACHPAIRS	36
TTM_SCR_TAP	97500
TTM_SCR_BRK	54600
TTM_SCR_HLD	38000
TTM_SCR_SLD	7500
TTM_SCR_ALL	197600
TTM_SCR_S	189650
TTM_SCR_SS	195500
TTM_RAT_ACV	10107

