VERSION	0.00.00	1.03.00
FES_MODE	0
BPM_DEF	199.000	199.000	199.000	199.000
MET_DEF	4	4
RESOLUTION	384
CLK_DEF	384
COMPATIBLE_CODE	MA2

BPM	0	0	199.000

TAP	1	0	1
TAP	1	0	5
TAP	1	144	0
TAP	1	192	2
TAP	1	192	6
TAP	1	336	7
TAP	2	0	1
TAP	2	0	5
TAP	2	48	1
TAP	2	48	5
TAP	2	96	0
TAP	2	96	4
TAP	2	144	0
TAP	2	144	4
TAP	2	192	3
TAP	2	192	7
BRK	2	288	0
TAP	2	336	4
TAP	3	0	2
TAP	3	0	6
TAP	3	144	7
TAP	3	192	1
TAP	3	192	5
TAP	3	336	0
TAP	4	0	2
TAP	4	0	6
TAP	4	48	2
TAP	4	48	6
TAP	4	96	3
TAP	4	96	7
TAP	4	144	3
TAP	4	144	7
TAP	4	192	0
TAP	4	192	4
TAP	4	288	2
TAP	4	288	6
HLD	5	0	3	48
HLD	5	48	4	48
HLD	5	96	2	48
HLD	5	144	6	48
TAP	5	192	1
TAP	5	216	0
TAP	5	240	1
TAP	5	264	0
TAP	5	288	1
TAP	5	336	2
HLD	6	0	4	48
HLD	6	48	3	48
HLD	6	96	5	48
HLD	6	144	1	48
TAP	6	192	6
TAP	6	216	7
TAP	6	240	6
TAP	6	264	7
TAP	6	288	6
TAP	6	336	5
HLD	7	0	2	48
HLD	7	48	3	48
HLD	7	96	1	48
HLD	7	144	5	48
TAP	7	192	0
TAP	7	216	7
TAP	7	240	0
TAP	7	264	7
TAP	7	288	0
TAP	7	336	1
HLD	8	0	5	48
HLD	8	48	4	48
HLD	8	96	6	48
HLD	8	144	2	48
TAP	8	192	7
TAP	8	216	0
TAP	8	240	7
TAP	8	264	0
TAP	8	288	7
TAP	8	336	6
HLD	9	0	1	48
HLD	9	48	0	48
HLD	9	96	2	48
HLD	9	144	6	48
TAP	9	192	3
TAP	9	216	4
TAP	9	240	3
TAP	9	264	4
TAP	9	288	3
TAP	9	336	2
HLD	10	0	6	48
HLD	10	48	7	48
HLD	10	96	5	48
HLD	10	144	1	48
TAP	10	192	4
TAP	10	216	3
TAP	10	240	4
TAP	10	264	3
TAP	10	288	4
TAP	10	336	5
HLD	11	0	3	48
HLD	11	48	4	48
HLD	11	96	2	48
HLD	11	144	6	48
TAP	11	192	1
TAP	11	216	0
TAP	11	240	1
TAP	11	264	0
TAP	11	288	1
TAP	11	336	2
TAP	12	0	3
TAP	12	0	7
TAP	12	48	3
TAP	12	48	7
TAP	12	96	3
TAP	12	96	7
TAP	12	144	3
TAP	12	144	7
TAP	12	192	3
HLD	12	192	7	432
BRK	12	288	1
TAP	13	0	0
TAP	13	96	0
HLD	13	192	0	48
TAP	13	288	3
TAP	13	288	4
STR	14	0	4
SCL	14	0	4	96	48	1
TAP	14	0	6
TAP	14	96	5
TAP	14	144	5
TAP	14	192	1
STR	14	192	3
SCR	14	192	3	96	48	6
TAP	14	288	2
TAP	14	336	2
STR	15	0	4
SI_	15	0	4	96	48	1
TAP	15	0	6
STR	15	96	7
SI_	15	96	7	96	48	3
STR	15	192	0
SI_	15	192	0	96	48	4
TAP	15	288	7
TAP	15	336	7
TAP	16	0	4
TAP	16	0	6
TAP	16	96	3
TAP	16	96	5
TAP	16	192	2
TAP	16	192	4
TAP	16	288	1
TAP	16	288	3
TAP	16	336	1
TAP	16	336	3
TAP	17	48	2
TAP	17	48	4
TAP	17	144	7
TAP	17	192	7
TAP	17	240	0
TAP	17	288	1
TAP	17	288	6
TAP	18	0	1
STR	18	0	3
SCR	18	0	3	96	48	6
TAP	18	96	2
TAP	18	144	2
STR	18	192	4
SCL	18	192	4	96	48	1
TAP	18	192	6
TAP	18	288	5
TAP	18	336	5
TAP	19	0	1
STR	19	0	3
SI_	19	0	3	96	48	6
STR	19	96	0
SI_	19	96	0	96	48	4
STR	19	192	7
SI_	19	192	7	96	48	3
HLD	19	288	0	96
TAP	20	0	3
TAP	20	96	3
TAP	20	96	6
TAP	20	192	1
TAP	20	192	4
TAP	20	288	3
TAP	20	288	6
TAP	20	336	3
TAP	20	336	6
TAP	21	48	1
TAP	21	48	4
TAP	21	144	0
TAP	21	192	0
TAP	21	240	7
TAP	21	288	1
TAP	21	288	6
TAP	22	0	0
STR	22	0	3
SCR	22	0	3	96	48	6
TAP	22	96	2
TAP	22	144	2
STR	22	192	4
SCL	22	192	4	96	48	1
TAP	22	192	7
TAP	22	288	5
TAP	22	336	5
TAP	23	0	0
STR	23	0	3
SI_	23	0	3	96	48	6
STR	23	96	1
SI_	23	96	1	96	48	6
STR	23	192	5
SI_	23	192	5	96	48	2
TAP	23	288	0
HLD	24	0	1	96
HLD	24	0	3	96
TAP	24	144	2
TAP	24	144	4
TAP	24	192	2
TAP	24	192	4
TAP	24	288	4
TAP	24	288	6
TAP	24	336	4
TAP	24	336	6
TAP	25	48	3
TAP	25	48	5
TAP	25	144	0
TAP	25	192	0
TAP	25	240	7
TAP	25	288	1
TAP	25	288	6
STR	26	0	4
SCL	26	0	4	96	48	1
TAP	26	0	7
TAP	26	96	5
TAP	26	144	5
TAP	26	192	0
STR	26	192	3
SCR	26	192	3	96	48	6
TAP	26	288	2
TAP	26	336	2
STR	27	0	4
SI_	27	0	4	96	48	0
TAP	27	0	6
STR	27	96	6
SI_	27	96	6	96	48	1
STR	27	192	2
SI_	27	192	2	96	48	5
HLD	27	288	7	96
TAP	28	0	0
TAP	28	96	1
TAP	28	96	4
TAP	28	192	3
TAP	28	192	6
TAP	28	288	1
TAP	28	288	4
TAP	28	336	1
TAP	28	336	4
TAP	29	48	3
TAP	29	48	6
TAP	29	144	7
TAP	29	192	7
TAP	29	288	1
TAP	29	288	6
HLD	30	0	0	96
HLD	30	0	1	96
TAP	30	192	0
TAP	30	192	1
TAP	30	240	2
TAP	30	240	7
TAP	30	288	3
TAP	30	288	6
TAP	30	336	4
STR	30	336	5
SCR	30	336	5	96	240	2
TAP	31	96	3
TAP	31	192	3
TAP	31	288	3
TAP	32	0	3
TAP	32	0	6
TAP	32	96	2
TAP	32	144	1
TAP	32	144	4
TAP	32	240	2
TAP	32	240	5
TAP	32	336	3
TAP	32	336	6
TAP	33	48	0
TAP	33	72	7
TAP	33	96	0
TAP	33	144	2
TAP	33	192	3
TAP	33	240	4
TAP	33	288	5
TAP	33	336	6
BRK	34	0	7
TAP	34	192	4
STR	34	240	5
SCL	34	240	5	96	96	2
TAP	34	288	6
TAP	35	96	3
TAP	35	96	4
TAP	35	192	2
TAP	35	192	5
TAP	35	288	1
TAP	35	288	6
TAP	36	0	5
STR	36	48	4
SCR	36	48	4	96	96	7
TAP	36	96	3
TAP	36	144	2
TAP	37	0	5
STR	37	48	4
SCR	37	48	4	96	96	7
TAP	37	96	3
TAP	37	144	2
TAP	38	0	5
STR	38	48	4
SCR	38	48	4	96	96	7
TAP	38	96	3
TAP	38	144	2
TAP	38	336	0
HLD	39	0	0	192
HLD	39	192	3	768
TAP	40	0	4
TAP	40	96	2
TAP	40	192	5
TAP	40	288	1
TAP	41	0	6
TAP	41	96	1
TAP	41	192	7
TAP	41	240	7
TAP	41	288	0
TAP	41	288	6
TAP	42	0	3
TAP	42	0	4
TAP	42	48	3
TAP	42	48	4
TAP	42	96	2
TAP	42	96	5
TAP	42	144	2
TAP	42	144	5
TAP	42	192	1
TAP	42	192	6
TAP	42	240	1
TAP	42	240	6
TAP	42	288	0
TAP	42	288	7
TAP	42	336	0
TAP	42	336	7
TAP	43	0	0
TAP	43	24	7
TAP	43	48	0
TAP	43	72	7
TAP	43	96	1
TAP	43	120	6
TAP	43	144	1
TAP	43	168	6
BRK	43	192	0
STR	43	288	3
SV_	43	288	3	96	48	6
TAP	43	288	4
STR	44	0	5
SCR	44	0	5	96	48	0
STR	44	96	2
SCL	44	96	2	96	48	7
TAP	44	192	4
STR	44	288	0
SI_	44	288	0	96	48	4
STR	44	288	7
SI_	44	288	7	96	48	5
STR	45	0	0
SI_	45	0	0	96	48	2
STR	45	0	7
SI_	45	0	7	96	48	3
STR	45	96	0
SI_	45	96	0	96	48	4
STR	45	96	7
SI_	45	96	7	96	48	5
TAP	45	192	0
TAP	45	192	7
STR	45	288	1
SXR	45	288	1	96	144	4
STR	45	288	6
SXL	45	288	6	96	144	4
TAP	46	192	0
TAP	46	192	7
TAP	46	288	3
TAP	46	288	4
HLD	47	0	3	192
BRK	47	0	7
BRK	47	48	7
BRK	47	96	7
BRK	47	144	7
BRK	47	192	7
TAP	47	288	1
TAP	47	288	5
TAP	47	336	2
TAP	47	336	6
STR	48	0	3
SI_	48	0	3	96	48	0
STR	48	0	7
SI_	48	0	7	96	48	4
STR	48	192	0
SI_	48	192	0	96	48	3
STR	48	192	4
SI_	48	192	4	96	48	7
STR	49	0	3
SI_	49	0	3	96	48	0
STR	49	0	7
SI_	49	0	7	96	48	4
STR	49	192	0
SI_	49	192	0	96	48	3
STR	49	192	4
SI_	49	192	4	96	48	7
TAP	50	0	2
TAP	50	0	4
TAP	50	96	1
TAP	50	96	4
TAP	50	144	2
TAP	50	144	5
TAP	50	192	3
TAP	50	192	6
TAP	50	240	2
TAP	50	240	5
STR	50	288	3
SI_	50	288	3	96	48	7
STR	50	288	4
SI_	50	288	4	96	48	6
STR	51	0	3
SI_	51	0	3	96	48	1
STR	51	0	4
SI_	51	0	4	96	48	0
TAP	51	96	3
TAP	51	96	4
TAP	51	192	2
TAP	51	192	6
BRK	51	288	3
STR	51	288	4
SV_	51	288	4	96	48	1
STR	52	0	2
SCL	52	0	2	96	48	7
STR	52	96	5
SCR	52	96	5	96	48	0
TAP	52	192	3
TAP	52	288	3
TAP	52	288	4
TAP	53	0	3
TAP	53	0	7
TAP	53	48	2
TAP	53	48	6
STR	53	96	1
SI_	53	96	1	96	48	6
STR	53	96	5
SI_	53	96	5	96	48	2
STR	53	288	4
SCL	53	288	4	96	48	1
STR	53	288	5
SUL	53	288	5	96	48	0
STR	54	96	2
SUR	54	96	2	96	48	7
STR	54	96	3
SCR	54	96	3	96	48	6
TAP	54	288	4
TAP	54	288	5
TAP	54	336	3
TAP	54	336	4
TAP	55	0	2
TAP	55	0	3
TAP	55	48	3
TAP	55	48	4
STR	55	96	4
SCL	55	96	4	96	48	1
STR	55	96	5
SUL	55	96	5	96	48	0
TAP	55	288	3
TAP	55	288	7
TAP	55	336	2
TAP	55	336	6
STR	56	0	1
SI_	56	0	1	96	48	4
STR	56	0	5
SI_	56	0	5	96	48	0
STR	56	192	0
SI_	56	192	0	96	48	5
STR	56	192	4
SI_	56	192	4	96	48	1
STR	57	0	1
SI_	57	0	1	96	48	4
STR	57	0	5
SI_	57	0	5	96	48	0
STR	57	192	0
SI_	57	192	0	96	48	5
STR	57	192	4
SI_	57	192	4	96	48	1
TAP	58	0	3
TAP	58	0	5
TAP	58	96	2
TAP	58	96	4
TAP	58	144	5
TAP	58	192	3
TAP	58	192	6
TAP	58	240	2
STR	58	288	1
SI_	58	288	1	96	48	5
TAP	58	288	4
STR	59	0	0
SI_	59	0	0	96	48	4
STR	59	96	7
SI_	59	96	7	96	48	3
STR	59	192	6
SI_	59	192	6	96	48	2
TAP	59	288	0
TAP	60	0	1
TAP	60	0	5
TAP	60	144	4
TAP	60	192	2
TAP	60	192	6
TAP	60	336	3
TAP	61	0	1
TAP	61	0	5
TAP	61	48	1
TAP	61	48	5
TAP	61	96	0
TAP	61	96	4
TAP	61	144	0
TAP	61	144	4
BRK	61	192	3
BRK	61	192	7
TAP	61	288	5
TAP	61	336	4
STR	62	0	3
SI_	62	0	3	96	48	7
TAP	62	96	6
TAP	62	144	5
STR	62	192	4
SI_	62	192	4	96	48	0
TAP	62	288	1
TAP	62	336	2
STR	63	0	3
SI_	63	0	3	96	48	0
STR	63	96	6
SI_	63	96	6	96	48	1
STR	63	192	2
SI_	63	192	2	96	48	6
TAP	63	288	5
STR	64	0	3
SCL	64	0	3	96	48	0
TAP	64	96	6
TAP	64	144	5
STR	64	192	4
SCR	64	192	4	96	48	7
TAP	64	288	1
TAP	64	336	2
TAP	65	0	3
TAP	65	0	7
TAP	65	48	3
TAP	65	48	7
TAP	65	96	2
TAP	65	96	6
TAP	65	144	2
TAP	65	144	6
TAP	65	192	1
TAP	65	192	5
TAP	65	288	0
TAP	65	336	0
STR	66	0	0
SI_	66	0	0	96	48	4
TAP	66	96	5
TAP	66	144	6
STR	66	192	7
SI_	66	192	7	96	48	3
TAP	66	288	2
TAP	66	336	1
STR	67	0	0
SI_	67	0	0	96	48	4
TAP	67	96	5
TAP	67	144	6
STR	67	192	7
SI_	67	192	7	96	48	3
TAP	67	288	2
HLD	68	64	0	64
HLD	68	64	7	64
HLD	68	176	0	64
HLD	68	176	7	64
HLD	68	288	0	64
HLD	68	288	7	64
HLD	69	16	0	64
HLD	69	16	7	64
HLD	69	112	0	128
HLD	69	112	7	128
BRK	69	288	1
BRK	69	288	6
STR	70	0	1
SI_	70	0	1	96	48	4
TAP	70	0	4
TAP	70	96	7
TAP	70	192	2
STR	70	192	6
SI_	70	192	6	96	48	3
TAP	70	240	1
TAP	70	288	0
STR	71	0	1
SI_	71	0	1	96	48	4
TAP	71	0	5
TAP	71	48	6
TAP	71	96	7
TAP	71	192	2
STR	71	192	6
SI_	71	192	6	96	48	3
TAP	71	240	1
TAP	71	288	0
TAP	72	0	1
TAP	72	0	4
TAP	72	96	3
TAP	72	96	6
TAP	72	192	3
TAP	72	216	4
TAP	72	240	3
TAP	72	264	4
TAP	72	288	3
TAP	72	336	1
TAP	72	336	4
TAP	73	48	3
TAP	73	48	6
TAP	73	144	0
TAP	73	144	7
TAP	73	192	0
TAP	73	192	7
TAP	73	240	1
TAP	73	240	6
TAP	73	288	2
TAP	73	288	5
TAP	73	336	3
TAP	73	336	4
TAP	74	48	0
TAP	74	48	6
TAP	74	96	1
STR	74	144	2
SCL	74	144	2	96	48	7
TAP	74	192	3
TAP	74	240	3
TAP	74	288	4
TAP	75	0	1
TAP	75	0	7
TAP	75	48	1
TAP	75	48	7
TAP	75	96	6
STR	75	144	5
SCR	75	144	5	96	48	0
TAP	75	192	4
TAP	75	240	4
STR	75	288	3
SI_	75	288	3	96	48	0
STR	76	0	4
SI_	76	0	4	96	48	7
STR	76	96	3
SCL	76	96	3	96	48	0
STR	76	192	4
SCR	76	192	4	96	48	7
TAP	76	288	3
TAP	77	0	0
TAP	77	0	7
TAP	77	48	0
TAP	77	48	7
TAP	77	96	1
TAP	77	96	6
TAP	77	144	1
TAP	77	144	6
BRK	77	192	2
BST	77	192	5
SI_	77	192	5	96	48	2
BRK	77	288	5
BRK	78	0	0
BRK	78	96	4
BRK	78	192	0
TAP	79	0	4
TAP	79	12	5
TAP	79	24	6
TAP	79	36	7
TAP	79	48	0
TAP	79	60	1
TAP	79	72	2
TAP	79	84	3
TAP	79	96	4
TAP	79	108	5
TAP	79	120	6
TAP	79	132	7
TAP	79	144	0
TAP	79	156	1
TAP	79	168	2
TAP	79	180	3
TAP	79	192	4
TAP	79	204	5
TAP	79	216	6
TAP	79	228	7
TAP	79	240	0
TAP	79	252	1
TAP	79	264	2
TAP	79	276	3
STR	79	288	4
SV_	79	288	4	96	48	1
STR	80	0	2
SCL	80	0	2	96	48	7
STR	80	96	5
SCR	80	96	5	96	48	0
TAP	80	192	3
STR	80	288	0
SI_	80	288	0	96	48	2
STR	80	288	7
SI_	80	288	7	96	48	3
STR	81	0	0
SI_	81	0	0	96	48	4
STR	81	0	7
SI_	81	0	7	96	48	5
STR	81	96	0
SI_	81	96	0	96	48	2
STR	81	96	7
SI_	81	96	7	96	48	3
TAP	81	192	0
TAP	81	192	7
STR	81	288	1
SXR	81	288	1	96	144	3
STR	81	288	6
SXL	81	288	6	96	144	3
TAP	82	192	0
TAP	82	192	7
TAP	82	288	3
TAP	82	288	4
BRK	83	0	3
HLD	83	0	7	192
BRK	83	48	5
BRK	83	96	2
BRK	83	144	4
BRK	83	192	0
TAP	83	288	3
TAP	83	288	4
TAP	83	336	3
TAP	83	336	4
TAP	84	0	2
STR	84	0	5
SCR	84	0	5	96	48	0
TAP	84	96	3
TAP	84	144	3
STR	84	192	2
SCL	84	192	2	96	48	7
TAP	84	192	5
TAP	84	288	4
TAP	84	336	4
TAP	85	0	2
STR	85	0	5
SCR	85	0	5	96	48	0
TAP	85	96	3
TAP	85	144	3
STR	85	192	2
SCL	85	192	2	96	48	7
TAP	85	192	5
TAP	85	288	4
TAP	85	336	4
TAP	86	0	3
TAP	86	0	5
TAP	86	96	3
TAP	86	96	6
TAP	86	144	2
TAP	86	144	5
TAP	86	192	1
TAP	86	192	4
TAP	86	240	2
TAP	86	240	5
STR	86	288	3
SI_	86	288	3	96	48	1
STR	86	288	4
SI_	86	288	4	96	48	0
STR	87	0	3
SI_	87	0	3	96	48	7
STR	87	0	4
SI_	87	0	4	96	48	6
TAP	87	96	3
TAP	87	96	4
TAP	87	192	1
TAP	87	192	5
STR	87	288	3
SV_	87	288	3	96	48	6
BRK	87	288	4
STR	88	0	5
SCR	88	0	5	96	48	0
STR	88	96	2
SCL	88	96	2	96	48	7
TAP	88	192	4
TAP	88	288	3
TAP	88	288	4
TAP	89	0	0
TAP	89	0	4
TAP	89	48	1
TAP	89	48	5
STR	89	96	2
SI_	89	96	2	96	48	5
STR	89	96	6
SI_	89	96	6	96	48	1
STR	89	288	2
SUR	89	288	2	96	48	7
STR	89	288	3
SCR	89	288	3	96	48	6
STR	90	96	4
SCL	90	96	4	96	48	1
STR	90	96	5
SUL	90	96	5	96	48	0
TAP	90	288	2
TAP	90	288	3
TAP	90	336	3
TAP	90	336	4
TAP	91	0	4
TAP	91	0	5
TAP	91	48	3
TAP	91	48	4
STR	91	96	2
SUR	91	96	2	96	48	7
STR	91	96	3
SCR	91	96	3	96	48	6
TAP	91	288	3
TAP	91	288	4
TAP	91	336	3
TAP	91	336	4
STR	92	0	2
SCL	92	0	2	96	48	7
TAP	92	0	5
TAP	92	96	4
TAP	92	144	4
TAP	92	192	2
STR	92	192	5
SCR	92	192	5	96	48	0
TAP	92	288	3
TAP	92	336	3
STR	93	0	2
SCL	93	0	2	96	48	7
TAP	93	0	5
TAP	93	96	4
TAP	93	144	4
TAP	93	192	2
STR	93	192	5
SCR	93	192	5	96	48	0
TAP	93	288	3
TAP	93	336	3
TAP	94	0	2
TAP	94	0	4
TAP	94	96	3
TAP	94	96	5
TAP	94	144	2
TAP	94	192	1
TAP	94	192	4
TAP	94	240	5
TAP	94	288	3
STR	94	288	6
SI_	94	288	6	96	48	2
STR	95	0	7
SI_	95	0	7	96	48	3
STR	95	96	0
SI_	95	96	0	96	48	4
STR	95	192	1
SI_	95	192	1	96	48	5
TAP	95	288	7
HLD	96	0	2	96
HLD	96	0	6	96
TAP	96	144	7
HLD	96	192	1	96
HLD	96	192	5	96
TAP	96	336	4
TAP	97	0	2
TAP	97	0	6
TAP	97	48	2
TAP	97	48	6
TAP	97	96	3
TAP	97	96	7
TAP	97	144	3
TAP	97	144	7
BST	97	192	0
SI_	97	192	0	96	48	4
BRK	97	192	4
BRK	97	288	0
TAP	97	336	3
HLD	98	0	1	96
HLD	98	0	5	96
TAP	98	144	0
HLD	98	192	2	96
HLD	98	192	6	96
TAP	98	336	3
TAP	99	0	1
TAP	99	0	5
TAP	99	48	1
TAP	99	48	5
TAP	99	96	0
TAP	99	96	4
TAP	99	144	0
TAP	99	144	4
BRK	99	192	3
BST	99	192	7
SI_	99	192	7	96	48	3
BRK	99	288	7
TAP	99	336	4
HLD	100	0	2	96
HLD	100	0	6	96
TAP	100	144	7
HLD	100	192	1	96
HLD	100	192	5	96
TAP	100	336	4
TAP	101	0	2
TAP	101	0	6
TAP	101	48	2
TAP	101	48	6
TAP	101	96	3
TAP	101	96	7
TAP	101	144	3
TAP	101	144	7
STR	101	192	0
SXL	101	192	0	96	432	5
STR	101	192	4
SXL	101	192	4	96	432	1
TAP	103	0	6
TAP	103	96	4
TAP	103	192	2
TAP	103	288	0
TAP	103	288	7

T_REC_TAP	557
T_REC_BRK	29
T_REC_XTP	0
T_REC_HLD	62
T_REC_XHO	0
T_REC_STR	132
T_REC_BST	3
T_REC_XST	0
T_REC_TTP	0
T_REC_THO	0
T_REC_SLD	135
T_REC_ALL	918
T_NUM_TAP	689
T_NUM_BRK	32
T_NUM_HLD	62
T_NUM_SLD	135
T_NUM_ALL	918
T_JUDGE_TAP	721
T_JUDGE_HLD	124
T_JUDGE_SLD	135
T_JUDGE_ALL	980
TTM_EACHPAIRS	232
TTM_SCR_TAP	344500
TTM_SCR_BRK	83200
TTM_SCR_HLD	62000
TTM_SCR_SLD	202500
TTM_SCR_ALL	692200
TTM_SCR_S	668350
TTM_SCR_SS	689000
TTM_RAT_ACV	10046

