VERSION	0.00.00	1.03.00
FES_MODE	0
BPM_DEF	199.000	199.000	199.000	199.000
MET_DEF	4	4
RESOLUTION	384
CLK_DEF	384
COMPATIBLE_CODE	MA2

BPM	0	0	199.000

HLD	1	0	0	96
HLD	1	0	1	96
HLD	1	192	6	96
HLD	1	192	7	96
TAP	2	0	0
TAP	2	0	1
TAP	2	96	2
TAP	2	96	7
TAP	2	192	3
TAP	2	192	6
TAP	2	288	0
HLD	3	0	6	96
HLD	3	0	7	96
HLD	3	192	0	96
HLD	3	192	1	96
TAP	4	0	6
TAP	4	0	7
TAP	4	96	0
TAP	4	96	5
TAP	4	192	1
TAP	4	192	4
TAP	4	288	7
HLD	5	0	1	192
TAP	5	96	2
HLD	5	192	2	192
TAP	5	288	3
STR	6	0	3
SUR	6	0	3	96	192	6
HLD	7	0	7	192
TAP	7	96	6
HLD	7	192	6	192
TAP	7	288	5
STR	8	0	5
SUL	8	0	5	96	192	2
HLD	9	0	3	192
TAP	9	96	2
HLD	9	192	2	192
TAP	9	288	1
STR	10	0	1
SUR	10	0	1	96	192	4
HLD	11	0	5	192
TAP	11	96	6
HLD	11	192	6	192
TAP	11	288	7
TAP	12	0	7
TAP	12	96	7
HLD	12	192	7	384
TAP	13	0	0
TAP	13	96	0
BRK	13	192	0
HLD	14	0	2	96
TAP	14	96	3
TAP	14	144	2
HLD	14	192	5	96
TAP	14	288	4
TAP	14	336	5
TAP	15	0	4
TAP	15	96	7
TAP	15	192	0
TAP	15	288	1
HLD	16	0	2	96
TAP	16	96	3
HLD	16	192	6	96
TAP	16	288	5
STR	17	0	0
SSL	17	0	0	96	144	4
HLD	18	0	5	96
TAP	18	96	4
TAP	18	144	5
HLD	18	192	2	96
TAP	18	288	3
TAP	18	336	2
TAP	19	0	3
TAP	19	96	0
TAP	19	192	7
TAP	19	288	6
HLD	20	0	5	96
TAP	20	96	4
HLD	20	192	1	96
TAP	20	288	2
STR	21	0	7
SSR	21	0	7	96	144	3
HLD	22	0	2	96
HLD	22	0	4	96
TAP	22	144	3
TAP	22	144	5
HLD	22	192	3	96
HLD	22	192	5	96
TAP	22	336	2
TAP	22	336	4
TAP	23	0	2
TAP	23	0	4
TAP	23	96	0
TAP	23	96	3
TAP	23	192	3
TAP	23	192	5
TAP	23	288	4
TAP	23	288	7
TAP	24	0	6
TAP	24	96	6
TAP	24	96	7
TAP	24	192	1
TAP	24	288	0
TAP	24	288	1
STR	25	0	0
SSL	25	0	0	96	144	4
TAP	25	0	7
HLD	26	0	3	96
HLD	26	0	5	96
TAP	26	144	2
TAP	26	144	4
HLD	26	192	2	96
HLD	26	192	4	96
TAP	26	336	3
TAP	26	336	5
TAP	27	0	3
TAP	27	0	5
TAP	27	96	4
TAP	27	96	7
TAP	27	192	2
TAP	27	192	4
TAP	27	288	0
TAP	27	288	3
TAP	28	0	1
TAP	28	96	0
TAP	28	96	1
TAP	28	192	6
TAP	28	288	6
TAP	28	288	7
TAP	29	0	0
STR	29	0	7
SSR	29	0	7	96	144	3
HLD	30	0	2	192
TAP	30	96	3
TAP	30	192	3
TAP	30	288	7
HLD	31	0	5	192
TAP	31	96	4
TAP	31	192	4
TAP	31	288	0
HLD	32	0	2	96
HLD	32	0	3	96
TAP	32	144	2
TAP	32	144	3
TAP	32	240	1
TAP	32	240	4
STR	32	336	6
SXR	32	336	6	96	240	3
STR	32	336	7
SXL	32	336	7	96	240	2
HLD	34	0	5	192
TAP	34	96	4
TAP	34	192	4
TAP	34	288	0
HLD	35	0	2	192
TAP	35	96	3
TAP	35	192	3
TAP	35	288	7
STR	36	0	3
SV_	36	0	3	96	144	4
HLD	36	0	7	240
HLD	37	0	0	240
STR	37	0	5
SUR	37	0	5	96	144	2
STR	38	0	1
SCL	38	0	1	96	144	6
HLD	38	0	4	240
HLD	39	0	3	96
HLD	39	0	5	96
HLD	39	192	2	96
HLD	39	192	4	96
TAP	40	0	4
TAP	40	0	5
TAP	40	96	3
TAP	40	96	6
TAP	40	192	2
TAP	40	192	7
TAP	40	288	0
TAP	40	288	1
TAP	41	0	2
TAP	41	0	3
TAP	41	96	1
TAP	41	96	4
TAP	41	192	0
TAP	41	192	5
TAP	41	288	6
TAP	41	288	7
TAP	42	0	1
TAP	42	48	0
TAP	42	96	1
TAP	42	192	6
TAP	42	240	7
TAP	42	288	6
TAP	43	0	0
TAP	43	48	7
TAP	43	96	0
BRK	43	192	1
BRK	43	192	6
TAP	44	0	0
TAP	44	0	1
TAP	44	96	3
TAP	44	192	6
TAP	44	192	7
TAP	44	288	4
TAP	45	0	0
TAP	45	0	1
STR	45	96	0
SI_	45	96	0	96	96	4
STR	45	96	1
SI_	45	96	1	96	96	5
TAP	46	0	2
TAP	46	0	3
TAP	46	96	7
TAP	46	192	4
TAP	46	192	5
TAP	46	288	0
TAP	47	0	2
TAP	47	48	3
TAP	47	96	2
TAP	47	192	1
TAP	47	192	4
TAP	48	0	2
TAP	48	0	3
TAP	48	96	2
TAP	48	96	3
HLD	48	192	1	96
HLD	48	192	4	96
TAP	49	0	4
TAP	49	0	5
TAP	49	96	4
TAP	49	96	5
HLD	49	192	3	96
HLD	49	192	6	96
TAP	50	0	3
TAP	50	0	4
TAP	50	96	2
TAP	50	96	3
TAP	50	192	3
TAP	50	192	4
TAP	50	288	4
TAP	50	288	5
TAP	51	0	3
TAP	51	0	4
TAP	51	96	0
TAP	51	96	7
BRK	51	192	1
BRK	51	192	6
TAP	52	0	6
TAP	52	0	7
TAP	52	96	4
TAP	52	192	0
TAP	52	192	1
TAP	52	288	3
TAP	53	0	6
TAP	53	0	7
STR	53	96	6
SI_	53	96	6	96	96	2
STR	53	96	7
SI_	53	96	7	96	96	3
TAP	54	0	4
TAP	54	0	5
TAP	54	96	0
TAP	54	192	2
TAP	54	192	3
TAP	54	288	7
TAP	55	0	5
TAP	55	48	4
TAP	55	96	5
TAP	55	192	3
TAP	55	192	6
TAP	56	0	0
TAP	56	0	1
TAP	56	96	0
TAP	56	96	1
HLD	56	192	2	96
HLD	56	192	7	96
TAP	57	0	6
TAP	57	0	7
TAP	57	96	6
TAP	57	96	7
HLD	57	192	0	96
HLD	57	192	5	96
TAP	58	0	0
TAP	58	0	7
TAP	58	96	0
TAP	58	96	1
TAP	58	192	0
TAP	58	192	7
TAP	58	288	6
TAP	58	288	7
TAP	59	0	0
TAP	59	0	7
TAP	59	96	3
TAP	59	96	4
TAP	59	192	1
TAP	59	192	6
HLD	60	0	6	96
HLD	60	0	7	96
HLD	60	192	0	96
HLD	60	192	1	96
TAP	61	0	6
TAP	61	0	7
TAP	61	96	0
TAP	61	96	5
TAP	61	192	1
TAP	61	192	4
TAP	61	288	7
TAP	62	0	2
TAP	62	48	3
TAP	62	96	1
TAP	62	192	5
TAP	62	240	4
TAP	62	288	6
TAP	63	0	2
TAP	63	48	3
TAP	63	96	1
TAP	63	144	4
TAP	63	192	0
TAP	63	288	1
TAP	63	288	7
TAP	64	0	6
TAP	64	48	7
TAP	64	96	5
TAP	64	192	1
TAP	64	240	0
TAP	64	288	2
TAP	65	0	6
TAP	65	48	7
TAP	65	96	5
TAP	65	144	0
HLD	65	192	4	96
TAP	65	288	3
TAP	66	0	5
TAP	66	48	4
TAP	66	96	6
TAP	66	192	2
TAP	66	240	3
TAP	66	288	1
TAP	67	0	5
TAP	67	48	4
TAP	67	96	6
TAP	67	144	3
TAP	67	192	7
TAP	67	288	0
TAP	67	288	6
TAP	68	0	1
TAP	68	48	0
TAP	68	96	1
TAP	68	192	6
TAP	68	240	7
TAP	68	288	6
TAP	69	0	3
TAP	69	48	3
TAP	69	96	4
TAP	69	144	4
TAP	69	192	3
BRK	69	288	2
BRK	69	288	4
TAP	70	0	1
TAP	70	96	0
TAP	70	96	1
TAP	70	192	2
TAP	70	240	3
TAP	70	288	2
STR	71	0	0
SUR	71	0	0	96	144	5
STR	71	0	1
SCR	71	0	1	96	144	4
TAP	72	0	6
TAP	72	96	6
TAP	72	96	7
TAP	72	192	5
TAP	72	240	4
TAP	72	288	5
STR	73	0	6
SCL	73	0	6	96	144	3
STR	73	0	7
SUL	73	0	7	96	144	2
TAP	74	0	2
TAP	74	96	1
TAP	74	96	3
TAP	74	192	0
TAP	74	240	7
TAP	74	288	0
TAP	75	0	5
TAP	75	96	4
TAP	75	96	6
TAP	75	192	7
TAP	75	240	0
TAP	75	288	7
TAP	76	0	2
TAP	76	48	3
TAP	76	96	2
TAP	76	192	5
TAP	76	240	4
TAP	76	288	5
TAP	77	0	0
TAP	77	48	7
TAP	77	96	0
TAP	77	144	7
HLD	77	192	0	384
TAP	78	0	7
TAP	78	96	7
STR	78	192	7
SXL	78	192	7	96	288	3
SXR	78	192	7	96	288	3
TAP	80	0	2
TAP	80	0	3
TAP	80	96	0
TAP	80	96	6
TAP	80	192	4
TAP	80	192	5
TAP	80	288	1
TAP	80	288	7
TAP	81	0	2
TAP	81	0	3
TAP	81	96	6
STR	81	96	7
SF_	81	96	7	96	96	3
TAP	82	0	1
TAP	82	0	7
TAP	82	96	3
TAP	82	96	4
TAP	82	192	0
TAP	82	192	6
TAP	82	288	3
TAP	82	288	4
TAP	83	0	1
TAP	83	48	0
TAP	83	96	1
TAP	83	192	2
TAP	83	192	7
TAP	84	0	2
TAP	84	0	3
TAP	84	96	2
TAP	84	96	3
HLD	84	192	0	96
HLD	84	192	6	96
TAP	85	0	4
TAP	85	0	5
TAP	85	96	4
TAP	85	96	5
HLD	85	192	1	96
HLD	85	192	7	96
TAP	86	0	3
TAP	86	0	4
TAP	86	96	0
TAP	86	96	2
TAP	86	192	3
TAP	86	192	4
TAP	86	288	5
TAP	86	288	7
TAP	87	0	3
TAP	87	0	4
TAP	87	96	0
TAP	87	96	7
BRK	87	192	1
BRK	87	192	6
TAP	88	0	3
TAP	88	0	5
TAP	88	96	0
TAP	88	96	1
TAP	88	192	2
TAP	88	192	4
TAP	88	288	6
TAP	88	288	7
TAP	89	0	3
TAP	89	0	5
STR	89	96	0
SF_	89	96	0	96	96	4
TAP	89	96	1
TAP	90	0	0
TAP	90	0	6
TAP	90	96	2
TAP	90	96	4
TAP	90	192	1
TAP	90	192	7
TAP	90	288	3
TAP	90	288	5
TAP	91	0	6
TAP	91	48	7
TAP	91	96	6
TAP	91	192	0
TAP	91	192	5
TAP	92	0	1
TAP	92	0	7
STR	92	96	1
SI_	92	96	1	96	96	5
STR	92	96	7
SI_	92	96	7	96	96	3
TAP	93	0	0
TAP	93	0	6
STR	93	96	0
SI_	93	96	0	96	96	4
STR	93	96	6
SI_	93	96	6	96	96	2
HLD	94	0	1	96
TAP	94	96	7
TAP	94	144	7
HLD	94	192	6	96
TAP	94	288	0
TAP	94	336	0
TAP	95	0	7
TAP	95	96	3
TAP	95	96	4
TAP	95	192	1
TAP	95	192	6
HLD	96	0	6	96
HLD	96	0	7	96
HLD	96	192	0	96
HLD	96	192	1	96
TAP	97	0	6
TAP	97	0	7
TAP	97	96	0
TAP	97	96	5
TAP	97	192	1
TAP	97	192	4
BRK	97	288	7
HLD	98	0	0	96
HLD	98	0	1	96
HLD	98	192	6	96
HLD	98	192	7	96
TAP	99	0	0
TAP	99	0	1
TAP	99	96	2
TAP	99	96	7
TAP	99	192	3
TAP	99	192	6
BRK	99	288	0
HLD	100	0	0	96
HLD	100	0	4	96
HLD	100	192	2	96
HLD	100	192	6	96
TAP	101	0	0
TAP	101	0	4
TAP	101	96	1
TAP	101	96	5
STR	101	192	2
SXR	101	192	2	96	384	7
STR	101	192	6
SXR	101	192	6	96	384	3
TAP	103	0	0
TAP	103	96	7
TAP	103	192	0
BRK	103	288	3
BRK	103	288	4

T_REC_TAP	396
T_REC_BRK	13
T_REC_XTP	0
T_REC_HLD	78
T_REC_XHO	0
T_REC_STR	29
T_REC_BST	0
T_REC_XST	0
T_REC_TTP	0
T_REC_THO	0
T_REC_SLD	30
T_REC_ALL	546
T_NUM_TAP	425
T_NUM_BRK	13
T_NUM_HLD	78
T_NUM_SLD	30
T_NUM_ALL	546
T_JUDGE_TAP	438
T_JUDGE_HLD	201
T_JUDGE_SLD	30
T_JUDGE_ALL	669
TTM_EACHPAIRS	161
TTM_SCR_TAP	212500
TTM_SCR_BRK	33800
TTM_SCR_HLD	78000
TTM_SCR_SLD	45000
TTM_SCR_ALL	369300
TTM_SCR_S	357000
TTM_SCR_SS	368000
TTM_RAT_ACV	10035

