VERSION	0.00.00	1.03.00
FES_MODE	0
BPM_DEF	199.000	199.000	199.000	199.000
MET_DEF	4	4
RESOLUTION	384
CLK_DEF	384
COMPATIBLE_CODE	MA2

BPM	0	0	199.000

TAP	1	0	2
TAP	1	0	3
TAP	1	192	4
TAP	1	192	5
TAP	2	0	3
TAP	2	0	4
TAP	2	96	3
TAP	2	96	4
TAP	2	192	2
TAP	2	192	5
TAP	3	0	6
TAP	3	0	7
TAP	3	192	0
TAP	3	192	1
TAP	4	0	0
TAP	4	0	7
TAP	4	96	0
TAP	4	96	7
BRK	4	192	1
BRK	4	192	6
TAP	5	0	2
TAP	5	96	3
TAP	5	192	4
TAP	5	288	5
TAP	6	0	4
TAP	6	96	3
TAP	6	192	2
TAP	6	192	3
TAP	6	288	2
TAP	6	288	3
TAP	7	0	1
TAP	7	96	0
TAP	7	192	7
TAP	7	288	6
TAP	8	0	7
TAP	8	96	0
TAP	8	192	0
TAP	8	192	1
TAP	9	0	2
TAP	9	96	3
TAP	9	192	4
TAP	9	288	5
TAP	10	0	6
TAP	10	96	7
TAP	10	192	0
TAP	10	192	7
TAP	10	288	0
TAP	10	288	7
HLD	11	0	6	96
HLD	11	0	7	96
HLD	11	192	0	96
HLD	11	192	1	96
HLD	12	0	0	96
HLD	12	0	7	96
BRK	12	192	1
BRK	12	192	6
TAP	13	0	0
TAP	13	96	0
TAP	13	192	0
HLD	14	0	2	192
TAP	14	192	3
TAP	14	288	4
HLD	15	0	5	192
TAP	15	192	4
TAP	15	288	3
TAP	16	0	2
TAP	16	96	2
TAP	16	96	3
TAP	16	192	5
TAP	16	288	4
TAP	16	288	5
HLD	17	0	3	192
HLD	17	0	4	192
HLD	18	0	5	192
TAP	18	192	4
TAP	18	288	3
HLD	19	0	2	192
TAP	19	192	3
TAP	19	288	4
TAP	20	0	5
TAP	20	96	4
TAP	20	96	5
TAP	20	192	2
TAP	20	288	2
TAP	20	288	3
HLD	21	0	3	192
HLD	21	0	4	192
TAP	21	288	2
TAP	21	288	5
HLD	22	0	6	192
TAP	22	192	7
TAP	22	288	0
HLD	23	0	1	192
TAP	23	192	0
TAP	23	288	7
TAP	24	0	6
TAP	24	96	6
TAP	24	96	7
TAP	24	192	1
TAP	24	288	0
TAP	24	288	1
HLD	25	0	0	192
HLD	25	0	7	192
HLD	26	0	1	192
TAP	26	192	0
TAP	26	288	7
HLD	27	0	6	192
TAP	27	192	7
TAP	27	288	0
TAP	28	0	1
TAP	28	96	0
TAP	28	96	1
TAP	28	192	6
TAP	28	288	6
TAP	28	288	7
HLD	29	0	0	192
HLD	29	0	7	192
STR	30	0	0
SI_	30	0	0	96	192	3
STR	31	0	4
SI_	31	0	4	96	192	7
TAP	32	0	0
TAP	32	0	1
TAP	32	192	6
TAP	32	192	7
STR	33	0	0
SI_	33	0	0	96	192	3
STR	33	0	7
SI_	33	0	7	96	192	4
STR	34	0	5
SI_	34	0	5	96	192	2
STR	35	0	1
SI_	35	0	1	96	192	6
HLD	36	0	5	384
HLD	37	0	4	384
HLD	38	0	3	384
HLD	39	0	2	192
TAP	39	192	3
TAP	40	0	2
TAP	40	96	2
TAP	40	96	3
TAP	40	192	2
TAP	40	288	2
TAP	40	288	3
TAP	41	0	5
TAP	41	96	4
TAP	41	96	5
TAP	41	192	5
TAP	41	288	4
TAP	41	288	5
TAP	42	0	3
TAP	42	0	4
TAP	42	96	3
TAP	42	96	4
TAP	42	192	2
TAP	42	192	5
TAP	42	288	2
TAP	42	288	5
TAP	43	0	1
TAP	43	0	6
TAP	43	96	1
TAP	43	96	6
BRK	43	192	0
BRK	43	192	7
TAP	44	0	1
TAP	44	96	0
TAP	44	192	0
TAP	44	192	1
TAP	44	288	2
TAP	44	288	7
TAP	45	0	6
TAP	45	96	7
TAP	45	192	6
TAP	45	192	7
TAP	45	288	0
TAP	45	288	5
HLD	46	0	1	96
TAP	46	96	0
HLD	46	192	6	96
TAP	46	288	7
STR	47	0	0
SCR	47	0	0	96	192	3
TAP	48	0	4
TAP	48	0	5
TAP	48	96	4
TAP	48	96	5
TAP	48	192	3
TAP	48	192	6
TAP	49	0	2
TAP	49	0	3
TAP	49	96	2
TAP	49	96	3
TAP	49	192	1
TAP	49	192	4
HLD	50	0	2	96
TAP	50	96	3
HLD	50	192	5	96
TAP	50	288	4
TAP	51	0	3
TAP	51	0	4
TAP	51	96	3
TAP	51	96	4
BRK	51	192	2
BRK	51	192	5
TAP	52	0	5
TAP	52	96	4
TAP	52	192	4
TAP	52	192	5
TAP	52	288	3
TAP	52	288	6
TAP	53	0	2
TAP	53	96	3
TAP	53	192	2
TAP	53	192	3
TAP	53	288	1
TAP	53	288	4
HLD	54	0	5	96
TAP	54	96	4
HLD	54	192	2	96
TAP	54	288	3
STR	55	0	4
SCR	55	0	4	96	192	7
TAP	56	0	0
TAP	56	0	1
TAP	56	96	0
TAP	56	96	1
TAP	56	192	2
TAP	56	192	7
TAP	57	0	6
TAP	57	0	7
TAP	57	96	6
TAP	57	96	7
TAP	57	192	0
TAP	57	192	5
HLD	58	0	6	192
HLD	58	192	7	192
HLD	59	0	0	192
TAP	59	192	1
TAP	60	0	6
TAP	60	0	7
TAP	60	192	0
TAP	60	192	1
TAP	61	0	0
TAP	61	0	7
TAP	61	96	0
TAP	61	96	7
BRK	61	192	1
BRK	61	192	6
TAP	62	0	0
TAP	62	96	1
TAP	62	192	2
TAP	62	288	3
TAP	63	0	4
TAP	63	96	5
TAP	63	192	6
TAP	63	288	0
TAP	63	288	7
TAP	64	0	7
TAP	64	96	6
TAP	64	192	5
TAP	64	288	4
TAP	65	0	3
TAP	65	96	2
TAP	65	192	1
TAP	65	288	0
TAP	65	288	7
TAP	66	0	0
TAP	66	96	1
TAP	66	192	2
TAP	66	288	3
TAP	66	288	4
TAP	67	0	4
TAP	67	96	5
TAP	67	192	6
TAP	67	288	0
TAP	67	288	7
HLD	68	0	0	192
HLD	68	192	7	192
TAP	69	0	0
TAP	69	96	7
TAP	69	192	1
TAP	69	192	6
STR	70	0	2
SI_	70	0	2	96	192	7
STR	71	0	6
SI_	71	0	6	96	192	3
STR	72	0	2
SI_	72	0	2	96	192	5
STR	73	0	6
SI_	73	0	6	96	192	1
TAP	74	0	2
TAP	74	96	2
TAP	74	192	3
TAP	74	288	3
TAP	74	288	4
TAP	75	0	5
TAP	75	96	5
TAP	75	192	4
TAP	75	288	3
TAP	75	288	4
HLD	76	0	2	96
HLD	76	0	3	96
HLD	76	192	4	96
HLD	76	192	5	96
TAP	77	0	3
TAP	77	0	4
TAP	77	96	2
TAP	77	96	5
BRK	77	192	1
BRK	77	192	6
TAP	78	0	7
TAP	78	96	7
TAP	78	192	7
STR	79	0	7
SCL	79	0	7	96	192	4
TAP	80	0	2
TAP	80	96	3
TAP	80	192	2
TAP	80	192	3
TAP	80	288	1
TAP	80	288	4
TAP	81	0	5
TAP	81	96	4
TAP	81	192	4
TAP	81	192	5
TAP	81	288	3
TAP	81	288	6
HLD	82	0	2	96
TAP	82	96	3
HLD	82	192	5	96
TAP	82	288	4
STR	83	0	4
SCR	83	0	4	96	192	7
TAP	84	0	0
TAP	84	0	1
TAP	84	96	0
TAP	84	96	1
HLD	84	192	2	96
HLD	84	192	7	96
TAP	85	0	6
TAP	85	0	7
TAP	85	96	6
TAP	85	96	7
HLD	85	192	0	96
HLD	85	192	5	96
HLD	86	0	6	96
TAP	86	96	7
HLD	86	192	1	96
TAP	86	288	0
TAP	87	0	0
TAP	87	0	7
TAP	87	96	0
TAP	87	96	7
BRK	87	192	1
BRK	87	192	6
TAP	88	0	1
TAP	88	96	0
TAP	88	192	0
TAP	88	192	1
TAP	88	288	2
TAP	88	288	7
TAP	89	0	7
TAP	89	96	6
TAP	89	192	6
TAP	89	192	7
TAP	89	288	0
TAP	89	288	5
TAP	90	0	6
TAP	90	0	7
TAP	90	96	6
TAP	90	96	7
TAP	90	192	0
TAP	90	192	1
TAP	90	288	0
TAP	90	288	1
TAP	91	0	0
TAP	91	0	7
TAP	91	96	1
TAP	91	96	6
BRK	91	192	2
BRK	91	192	5
TAP	92	0	5
TAP	92	48	5
TAP	92	96	5
HLD	92	192	4	96
HLD	92	192	5	96
TAP	93	0	2
TAP	93	48	2
TAP	93	96	2
HLD	93	192	2	96
HLD	93	192	3	96
TAP	94	0	1
TAP	94	96	0
TAP	94	96	1
TAP	94	192	6
TAP	94	288	6
TAP	94	288	7
TAP	95	0	0
TAP	95	0	7
TAP	95	96	1
TAP	95	96	6
TAP	95	192	2
TAP	95	192	5
TAP	95	288	3
TAP	95	288	4
TAP	96	0	2
TAP	96	0	3
TAP	96	192	4
TAP	96	192	5
TAP	97	0	3
TAP	97	0	4
TAP	97	48	3
TAP	97	48	4
TAP	97	96	3
TAP	97	96	4
TAP	97	192	2
TAP	97	192	5
TAP	98	0	6
TAP	98	0	7
TAP	98	192	0
TAP	98	192	1
TAP	99	0	0
TAP	99	0	7
TAP	99	48	0
TAP	99	48	7
TAP	99	96	0
TAP	99	96	7
BRK	99	192	1
BRK	99	192	6
BRK	100	0	0
BRK	100	0	1
BRK	100	192	6
BRK	100	192	7
TAP	101	0	0
TAP	101	0	7
TAP	101	48	0
TAP	101	48	7
TAP	101	96	0
TAP	101	96	7
HLD	101	192	1	384
HLD	101	192	6	384
TAP	103	0	7
TAP	103	96	0
TAP	103	192	0
TAP	103	192	7
BRK	103	288	1
BRK	103	288	6

T_REC_TAP	340
T_REC_BRK	24
T_REC_XTP	0
T_REC_HLD	55
T_REC_XHO	0
T_REC_STR	14
T_REC_BST	0
T_REC_XST	0
T_REC_TTP	0
T_REC_THO	0
T_REC_SLD	14
T_REC_ALL	447
T_NUM_TAP	354
T_NUM_BRK	24
T_NUM_HLD	55
T_NUM_SLD	14
T_NUM_ALL	447
T_JUDGE_TAP	378
T_JUDGE_HLD	184
T_JUDGE_SLD	14
T_JUDGE_ALL	576
TTM_EACHPAIRS	138
TTM_SCR_TAP	177000
TTM_SCR_BRK	62400
TTM_SCR_HLD	55000
TTM_SCR_SLD	21000
TTM_SCR_ALL	315400
TTM_SCR_S	303650
TTM_SCR_SS	313000
TTM_RAT_ACV	10076

