VERSION	0.00.00	1.03.00
FES_MODE	0
BPM_DEF	199.000	199.000	199.000	199.000
MET_DEF	4	4
RESOLUTION	384
CLK_DEF	384
COMPATIBLE_CODE	MA2

BPM	0	0	199.000

TAP	1	0	0
TAP	1	192	0
TAP	2	0	0
TAP	2	96	0
TAP	2	192	0
TAP	3	0	7
TAP	3	192	7
TAP	4	0	7
TAP	4	96	7
TAP	4	192	7
STR	5	0	0
SI_	5	0	0	96	672	3
TAP	8	0	7
STR	9	0	7
SI_	9	0	7	96	672	4
TAP	12	0	0
TAP	13	0	0
BRK	13	192	0
HLD	14	0	7	192
HLD	15	0	7	192
TAP	16	0	6
TAP	16	192	6
TAP	17	0	5
TAP	17	192	5
HLD	18	0	4	192
HLD	19	0	4	192
TAP	20	0	3
TAP	20	192	3
TAP	21	0	3
TAP	21	0	4
HLD	22	0	3	192
HLD	23	0	3	192
TAP	24	0	2
TAP	24	192	2
TAP	25	0	1
TAP	25	192	1
HLD	26	0	0	192
HLD	27	0	0	192
TAP	28	0	7
TAP	28	192	7
TAP	29	0	0
TAP	29	0	7
TAP	30	0	0
TAP	30	192	0
TAP	31	0	1
TAP	31	192	1
TAP	32	0	2
TAP	32	96	2
TAP	32	192	2
HLD	33	0	3	192
HLD	33	0	4	192
TAP	34	0	4
TAP	34	192	4
TAP	35	0	5
TAP	35	192	5
TAP	36	0	6
TAP	36	0	7
TAP	37	0	0
TAP	37	0	1
TAP	38	0	6
TAP	38	0	7
TAP	39	0	0
TAP	39	0	1
TAP	40	0	7
TAP	40	192	7
TAP	41	0	0
TAP	41	192	0
TAP	42	0	7
TAP	42	96	7
TAP	42	192	0
TAP	42	288	0
TAP	43	0	7
TAP	43	96	7
BRK	43	192	0
TAP	44	0	0
TAP	44	96	0
TAP	44	192	0
TAP	45	0	1
TAP	45	96	1
TAP	45	192	1
TAP	46	0	2
TAP	46	96	2
TAP	46	192	2
TAP	47	0	3
TAP	47	96	3
TAP	47	192	3
TAP	47	192	4
HLD	48	0	4	192
HLD	49	0	3	192
TAP	50	0	3
TAP	50	0	4
TAP	50	192	3
TAP	50	192	4
TAP	51	0	3
TAP	51	96	4
BRK	51	192	3
TAP	52	0	4
TAP	52	96	4
TAP	52	192	4
TAP	53	0	5
TAP	53	96	5
TAP	53	192	5
TAP	54	0	6
TAP	54	96	6
TAP	54	192	6
TAP	55	0	7
TAP	55	96	7
TAP	55	192	0
TAP	55	192	7
TAP	56	0	0
TAP	56	96	0
TAP	56	192	0
TAP	57	0	7
TAP	57	96	7
TAP	57	192	7
TAP	58	0	0
TAP	58	0	7
TAP	58	192	0
TAP	58	192	7
TAP	59	0	0
TAP	59	0	7
TAP	59	96	0
TAP	59	96	7
TAP	59	192	1
TAP	59	192	6
TAP	60	0	7
TAP	60	192	0
TAP	61	0	6
TAP	61	0	7
TAP	61	96	6
TAP	61	96	7
TAP	61	192	6
TAP	61	192	7
TAP	62	0	0
TAP	62	192	0
TAP	63	0	1
TAP	63	192	1
TAP	64	0	2
TAP	64	192	2
TAP	65	0	3
TAP	65	96	4
TAP	65	192	3
TAP	66	0	4
TAP	66	192	4
TAP	67	0	5
TAP	67	192	5
TAP	68	0	6
TAP	68	192	6
TAP	69	0	7
TAP	69	96	0
TAP	69	192	7
TAP	70	0	0
TAP	70	192	0
TAP	71	0	7
TAP	71	192	7
TAP	72	0	6
TAP	72	192	6
HLD	73	0	5	192
TAP	74	0	4
TAP	74	192	4
TAP	75	0	3
TAP	75	192	3
TAP	76	0	2
TAP	76	192	2
HLD	77	0	1	192
TAP	78	0	0
TAP	78	96	0
BRK	78	192	0
TAP	80	0	7
TAP	80	96	7
TAP	80	192	7
TAP	81	0	6
TAP	81	96	6
TAP	81	192	6
TAP	82	0	5
TAP	82	96	5
TAP	82	192	4
TAP	82	288	4
TAP	83	0	3
TAP	83	96	4
TAP	83	192	3
HLD	84	0	4	192
HLD	84	0	5	192
HLD	85	0	2	192
HLD	85	0	3	192
TAP	86	0	3
TAP	86	0	4
TAP	86	192	3
TAP	86	192	4
TAP	87	0	3
TAP	87	0	4
TAP	87	96	3
TAP	87	96	4
TAP	87	192	2
TAP	87	192	5
TAP	88	0	2
TAP	88	96	2
TAP	88	192	2
TAP	89	0	1
TAP	89	96	1
TAP	89	192	1
TAP	90	0	0
TAP	90	96	0
TAP	90	192	0
TAP	91	0	7
TAP	91	96	0
TAP	91	192	7
HLD	92	0	6	192
HLD	92	0	7	192
HLD	93	0	0	192
HLD	93	0	1	192
TAP	94	0	7
TAP	94	96	7
TAP	94	192	0
TAP	94	288	0
TAP	95	0	0
TAP	95	0	7
TAP	95	96	0
TAP	95	96	7
TAP	95	192	1
TAP	95	192	6
TAP	96	0	7
TAP	96	192	0
TAP	97	0	6
TAP	97	0	7
TAP	97	96	6
TAP	97	96	7
TAP	97	192	6
TAP	97	192	7
TAP	98	0	0
TAP	98	192	7
TAP	99	0	0
TAP	99	0	1
TAP	99	96	0
TAP	99	96	1
TAP	99	192	0
TAP	99	192	1
TAP	100	0	7
TAP	100	192	0
TAP	101	0	0
TAP	101	0	7
TAP	101	96	0
TAP	101	96	7
HLD	101	192	1	384
HLD	101	192	6	384
TAP	103	0	7
TAP	103	96	7
TAP	103	192	7
BRK	103	288	0

T_REC_TAP	216
T_REC_BRK	5
T_REC_XTP	0
T_REC_HLD	24
T_REC_XHO	0
T_REC_STR	2
T_REC_BST	0
T_REC_XST	0
T_REC_TTP	0
T_REC_THO	0
T_REC_SLD	2
T_REC_ALL	249
T_NUM_TAP	218
T_NUM_BRK	5
T_NUM_HLD	24
T_NUM_SLD	2
T_NUM_ALL	249
T_JUDGE_TAP	223
T_JUDGE_HLD	104
T_JUDGE_SLD	2
T_JUDGE_ALL	329
TTM_EACHPAIRS	40
TTM_SCR_TAP	109000
TTM_SCR_BRK	13000
TTM_SCR_HLD	24000
TTM_SCR_SLD	3000
TTM_SCR_ALL	149000
TTM_SCR_S	144050
TTM_SCR_SS	148500
TTM_RAT_ACV	10033

