VERSION	0.00.00	1.03.00
FES_MODE	0
BPM_DEF	160.000	160.000	160.000	160.000
MET_DEF	4	4
RESOLUTION	384
CLK_DEF	384
COMPATIBLE_CODE	MA2

BPM	0	0	160.000

STR	1	0	7
SCR	1	0	7	96	2112	7
TAP	3	0	7
TAP	3	96	7
TAP	3	192	7
TAP	3	264	7
TAP	3	336	7
TAP	4	0	0
TAP	4	96	0
TAP	4	192	0
TAP	4	264	0
TAP	4	336	0
TAP	5	0	1
TAP	5	96	1
TAP	5	192	1
TAP	5	264	1
TAP	5	336	1
TAP	6	0	2
TAP	6	96	2
TAP	6	192	2
TAP	6	264	2
TAP	6	336	2
TAP	7	0	4
TAP	7	48	7
TAP	7	96	6
TAP	7	144	5
TAP	7	192	4
TAP	7	264	4
TAP	7	336	4
TAP	8	0	3
TAP	8	48	0
TAP	8	96	1
TAP	8	144	2
TAP	8	192	3
TAP	8	264	3
TAP	8	336	3
TAP	9	0	4
TAP	9	48	7
TAP	9	96	6
TAP	9	144	5
TAP	9	192	4
TAP	9	264	4
TAP	9	336	4
STR	10	0	3
SCR	10	0	3	96	192	3
TAP	11	0	2
TAP	11	48	3
TAP	11	96	1
TAP	11	96	4
TAP	11	144	5
TAP	11	192	4
TAP	11	240	3
TAP	11	240	6
TAP	11	288	2
TAP	11	336	1
TAP	11	336	3
TAP	12	0	5
TAP	12	48	4
TAP	12	48	6
TAP	12	96	2
TAP	12	144	1
TAP	12	144	3
TAP	12	192	0
TAP	12	192	4
TAP	12	240	5
TAP	12	264	7
TAP	12	312	2
TAP	12	336	0
TAP	12	360	2
TAP	13	0	0
TAP	13	48	4
TAP	13	48	5
TAP	13	96	7
TAP	13	144	3
TAP	13	144	4
TAP	13	192	6
TAP	13	240	2
TAP	13	240	3
TAP	13	288	5
TAP	13	312	4
TAP	13	336	5
TAP	13	360	4
TAP	14	0	5
TAP	14	48	1
TAP	14	48	2
TAP	14	96	4
TAP	14	144	0
TAP	14	144	1
TAP	14	192	3
TAP	14	240	0
TAP	14	240	7
STR	14	288	2
SI_	14	288	2	96	48	7
TAP	14	312	3
TAP	14	336	2
TAP	14	360	3
TAP	15	96	6
TAP	15	144	5
TAP	15	144	7
TAP	15	192	1
TAP	15	240	0
TAP	15	240	2
TAP	15	288	6
TAP	15	312	7
TAP	15	336	6
TAP	16	0	4
TAP	16	48	3
TAP	16	48	5
TAP	16	96	1
TAP	16	144	0
TAP	16	144	2
TAP	16	192	6
TAP	16	240	5
TAP	16	240	7
TAP	16	288	1
TAP	16	312	0
TAP	16	336	1
TAP	17	0	3
TAP	17	48	2
TAP	17	48	4
TAP	17	96	6
TAP	17	144	5
TAP	17	144	7
TAP	17	192	0
TAP	17	216	4
TAP	17	240	1
TAP	17	264	5
TAP	17	288	2
TAP	17	312	6
TAP	17	336	3
TAP	17	360	7
STR	18	0	4
SCR	18	0	4	96	144	4
BRK	18	288	2
BRK	18	288	6
STR	19	0	0
SI_	19	0	0	96	48	3
STR	19	48	4
SI_	19	48	4	96	48	7
TAP	19	96	0
TAP	19	144	4
STR	19	192	3
SI_	19	192	3	96	48	0
STR	19	240	7
SI_	19	240	7	96	48	4
TAP	19	288	3
TAP	19	336	7
TAP	20	0	0
TAP	20	48	2
TAP	20	72	3
TAP	20	120	5
TAP	20	144	4
TAP	20	192	1
TAP	20	216	3
TAP	20	264	6
TAP	20	288	4
TAP	21	0	2
TAP	21	24	3
TAP	21	48	2
TAP	21	96	7
TAP	21	144	0
TAP	21	144	6
TAP	21	192	5
TAP	21	216	4
TAP	21	240	5
TAP	21	288	0
TAP	21	336	1
TAP	21	336	7
TAP	22	0	2
TAP	22	24	3
TAP	22	48	1
TAP	22	96	5
TAP	22	120	4
TAP	22	144	6
TAP	22	192	0
TAP	22	216	7
TAP	22	240	0
TAP	22	264	7
TAP	22	288	0
STR	23	0	1
SI_	23	0	1	96	48	5
TAP	23	48	0
TAP	23	48	2
TAP	23	96	1
STR	23	192	6
SI_	23	192	6	96	48	2
TAP	23	240	5
TAP	23	240	7
TAP	23	288	6
TAP	24	0	1
TAP	24	48	0
TAP	24	48	2
TAP	24	96	6
TAP	24	144	5
TAP	24	144	7
STR	24	192	1
SI_	24	192	1	96	48	4
STR	24	192	6
SI_	24	192	6	96	48	3
TAP	24	240	0
TAP	24	240	7
TAP	24	288	1
TAP	24	288	6
TAP	25	48	0
TAP	25	48	1
TAP	25	96	4
TAP	25	144	0
TAP	25	144	7
TAP	25	192	3
TAP	25	240	6
TAP	25	240	7
TAP	25	288	0
TAP	25	336	4
TAP	25	336	5
TAP	26	0	7
TAP	26	48	3
TAP	26	48	4
TAP	26	96	0
TAP	26	144	2
TAP	26	144	3
TAP	26	192	7
STR	26	240	1
SLR	26	240	1	96	96	7
STR	26	240	6
SLL	26	240	6	96	96	0
TAP	26	288	0
TAP	26	288	7
TAP	26	336	1
TAP	26	336	6
TAP	27	96	3
TAP	27	96	4
TAP	27	144	5
TAP	27	168	4
TAP	27	216	2
TAP	27	240	3
TAP	27	288	6
TAP	27	312	4
TAP	27	360	1
TAP	28	0	3
TAP	28	48	2
TAP	28	48	4
TAP	28	96	6
TAP	28	144	5
TAP	28	144	7
STR	28	192	1
SI_	28	192	1	96	48	5
TAP	28	240	0
TAP	28	240	2
STR	28	288	1
SCL	28	288	1	96	48	6
SCR	28	288	1	96	48	4
TAP	29	96	5
TAP	29	144	4
TAP	29	144	6
TAP	29	192	2
TAP	29	240	1
TAP	29	240	3
TAP	29	288	7
TAP	29	336	0
TAP	29	336	6
TAP	30	0	1
TAP	30	24	4
TAP	30	48	1
TAP	30	72	4
TAP	30	96	1
TAP	30	120	4
TAP	30	144	2
TAP	30	168	6
TAP	30	192	2
TAP	30	216	6
TAP	30	240	2
TAP	30	264	6
TAP	30	288	0
TAP	30	312	5
TAP	30	336	0
TAP	30	360	5
TAP	31	0	0
TAP	31	24	5
TAP	31	48	1
TAP	31	96	2
TAP	31	96	6
TAP	31	144	3
TAP	31	144	7
STR	31	192	0
SCL	31	192	0	96	48	5
STR	31	192	4
SCL	31	192	4	96	48	1
TAP	32	0	6
TAP	32	24	7
TAP	32	48	6
TAP	32	72	7
TAP	32	96	6
TAP	32	144	1
TAP	32	168	0
TAP	32	192	1
TAP	32	216	0
TAP	32	240	1
TAP	32	288	3
TAP	32	288	4
TAP	32	336	5
TAP	33	0	3
TAP	33	0	4
TAP	33	48	1
TAP	33	96	3
TAP	33	96	4
TAP	33	144	6
STR	33	192	3
SI_	33	192	3	96	48	7
STR	33	192	4
SI_	33	192	4	96	48	0
STR	33	288	3
SCL	33	288	3	96	240	4
STR	33	288	4
SCR	33	288	4	96	240	3
BRK	34	288	1
BRK	34	288	6
TAP	35	0	1
TAP	35	0	4
STR	35	48	1
SI_	35	48	1	96	48	4
TAP	35	72	2
TAP	35	96	1
TAP	35	120	2
TAP	35	144	1
TAP	35	192	7
STR	35	240	6
SI_	35	240	6	96	48	3
TAP	35	264	5
TAP	35	288	6
TAP	35	312	5
TAP	35	336	6
TAP	36	0	0
TAP	36	48	0
TAP	36	48	7
STR	36	96	0
SCR	36	96	0	96	48	3
STR	36	96	7
SCL	36	96	7	96	48	4
TAP	36	144	1
TAP	36	144	6
STR	36	288	1
SI_	36	288	1	96	48	4
STR	36	336	5
SI_	36	336	5	96	48	0
TAP	37	0	1
TAP	37	48	5
TAP	37	96	2
HLD	37	144	2	48
TAP	37	192	3
TAP	37	216	2
TAP	37	240	3
TAP	37	264	2
TAP	37	288	4
TAP	37	312	3
TAP	37	336	4
TAP	37	360	3
TAP	38	0	5
TAP	38	24	4
TAP	38	48	5
TAP	38	72	4
STR	38	96	6
SF_	38	96	6	96	48	2
TAP	38	144	5
TAP	38	144	7
TAP	38	288	1
STR	38	288	3
SCL	38	288	3	96	48	0
TAP	38	336	2
TAP	38	336	4
TAP	39	0	3
TAP	39	0	5
TAP	39	96	5
TAP	39	120	4
TAP	39	144	5
TAP	39	168	6
STR	39	192	5
SI_	39	192	5	96	48	2
TAP	39	216	4
TAP	39	240	5
TAP	39	288	0
TAP	39	336	0
TAP	40	0	3
TAP	40	0	4
TAP	40	48	2
TAP	40	48	5
TAP	40	96	7
TAP	40	120	7
STR	40	144	0
SI_	40	144	0	96	48	4
STR	40	192	7
SI_	40	192	7	96	48	3
TAP	40	240	0
TAP	40	288	7
TAP	40	336	0
TAP	40	360	0
TAP	41	0	0
TAP	41	48	6
STR	41	96	7
SCL	41	96	7	96	48	4
STR	41	144	3
SCL	41	144	3	96	48	0
TAP	41	192	7
TAP	41	240	3
TAP	41	288	7
HLD	41	336	7	48
HLD	42	0	6	48
HLD	42	48	5	48
HLD	42	96	4	48
HLD	42	144	3	48
HLD	42	192	2	48
HLD	42	240	1	48
BRK	42	288	0
TAP	43	0	3
TAP	43	0	6
STR	43	48	6
SI_	43	48	6	96	48	3
TAP	43	72	5
TAP	43	96	6
TAP	43	120	5
TAP	43	144	6
TAP	43	192	0
STR	43	240	2
SI_	43	240	2	96	48	7
TAP	43	264	1
TAP	43	288	2
TAP	43	312	1
TAP	43	336	2
TAP	44	0	0
TAP	44	48	0
TAP	44	48	7
STR	44	96	3
SCL	44	96	3	96	48	0
STR	44	96	4
SCR	44	96	4	96	48	7
TAP	44	144	2
TAP	44	144	5
STR	44	288	5
SI_	44	288	5	96	48	0
STR	44	336	2
SI_	44	336	2	96	48	7
TAP	45	0	5
TAP	45	48	2
TAP	45	96	6
HLD	45	144	6	48
TAP	45	192	7
TAP	45	216	6
TAP	45	240	7
TAP	45	264	6
TAP	45	288	3
TAP	45	312	4
TAP	45	336	3
TAP	45	360	4
TAP	46	0	1
TAP	46	24	0
TAP	46	48	1
TAP	46	72	0
STR	46	96	2
SF_	46	96	2	96	48	6
TAP	46	144	1
TAP	46	144	3
TAP	46	288	5
STR	46	288	7
SCL	46	288	7	96	48	4
TAP	46	336	0
TAP	46	336	6
TAP	47	0	1
TAP	47	0	7
TAP	47	96	1
TAP	47	120	0
TAP	47	144	1
TAP	47	168	2
STR	47	192	1
SI_	47	192	1	96	48	6
TAP	47	216	0
TAP	47	240	1
TAP	47	288	4
TAP	47	336	4
TAP	48	0	0
TAP	48	0	7
TAP	48	48	2
TAP	48	48	5
TAP	48	96	0
TAP	48	120	0
STR	48	144	4
SI_	48	144	4	96	48	0
STR	48	192	3
SI_	48	192	3	96	48	7
TAP	48	240	4
TAP	48	288	3
TAP	48	336	6
TAP	48	360	6
TAP	49	0	6
TAP	49	48	1
STR	49	96	0
SCR	49	96	0	96	48	3
STR	49	144	4
SCR	49	144	4	96	48	7
TAP	49	192	0
TAP	49	240	4
TAP	49	288	0
HLD	49	336	0	48
HLD	50	0	1	48
HLD	50	48	2	48
HLD	50	96	3	48
HLD	50	144	4	48
HLD	50	192	5	48
HLD	50	240	6	48
BRK	50	288	7
STR	51	0	0
SCR	51	0	0	96	192	0
STR	51	0	2
SUL	51	0	2	96	192	0
STR	52	0	7
SCL	52	0	7	96	288	4
STR	52	96	3
SI_	52	96	3	96	48	0
TAP	52	144	2
TAP	52	192	3
TAP	52	288	0
TAP	52	336	0
STR	53	0	0
SCR	53	0	0	96	288	3
STR	53	96	4
SI_	53	96	4	96	48	7
TAP	53	144	5
TAP	53	192	4
TAP	53	288	7
TAP	53	336	7
STR	54	0	7
SCL	54	0	7	96	288	4
STR	54	96	3
SI_	54	96	3	96	48	0
TAP	54	144	2
TAP	54	192	3
TAP	54	288	0
TAP	54	336	0
STR	55	0	0
SCR	55	0	0	96	288	3
STR	55	96	4
SI_	55	96	4	96	48	7
TAP	55	144	5
TAP	55	192	4
TAP	55	288	7
TAP	55	336	7
STR	56	0	7
SI_	56	0	7	96	48	4
TAP	56	96	0
TAP	56	192	2
TAP	56	264	1
TAP	56	336	0
STR	57	0	0
SCR	57	0	0	96	288	3
STR	57	96	4
SI_	57	96	4	96	48	7
TAP	57	144	5
TAP	57	192	4
TAP	57	288	7
TAP	57	336	7
STR	58	0	7
SCL	58	0	7	96	288	4
STR	58	96	3
SI_	58	96	3	96	48	0
TAP	58	144	2
TAP	58	192	3
TAP	58	288	0
TAP	58	336	0
HLD	59	0	0	192
TAP	59	96	4
TAP	59	144	4
TAP	59	192	4
TAP	60	0	2
TAP	60	0	4
TAP	60	48	5
TAP	60	72	5
STR	60	96	4
SI_	60	96	4	96	48	7
TAP	60	144	3
TAP	60	192	0
TAP	60	192	4
TAP	60	240	1
TAP	60	288	2
TAP	60	336	3
TAP	61	0	2
TAP	61	0	4
TAP	61	48	5
STR	61	96	4
SI_	61	96	4	96	48	7
TAP	61	144	3
TAP	61	192	0
TAP	61	192	4
TAP	61	240	1
TAP	61	288	2
TAP	61	336	3
TAP	62	0	3
TAP	62	0	5
TAP	62	48	2
TAP	62	72	2
STR	62	96	3
SI_	62	96	3	96	48	0
TAP	62	144	4
TAP	62	192	3
TAP	62	192	7
TAP	62	240	6
TAP	62	288	5
TAP	62	336	4
TAP	63	0	3
TAP	63	0	5
TAP	63	48	2
STR	63	96	3
SI_	63	96	3	96	48	0
TAP	63	144	4
TAP	63	192	3
STR	63	192	7
SI_	63	192	7	96	48	4
STR	63	288	3
SCL	63	288	3	96	144	4
TAP	63	288	7
TAP	64	192	0
TAP	64	264	2
TAP	64	336	3
TAP	65	0	2
TAP	65	0	4
TAP	65	48	5
TAP	65	72	5
STR	65	96	4
SI_	65	96	4	96	48	7
TAP	65	144	3
TAP	65	192	0
TAP	65	192	4
TAP	65	240	1
TAP	65	288	2
TAP	65	336	3
TAP	66	0	3
TAP	66	0	5
TAP	66	48	4
TAP	66	96	2
TAP	66	96	4
TAP	66	144	3
TAP	66	192	3
TAP	66	192	6
TAP	66	240	4
TAP	66	288	1
TAP	66	288	4
TAP	66	336	3
TAP	67	0	3
TAP	67	0	7
TAP	67	48	4
TAP	67	96	0
TAP	67	96	4
TAP	67	144	0
TAP	67	192	0
TAP	67	216	4
TAP	67	240	1
TAP	67	264	5
TAP	67	288	2
TAP	67	312	6
TAP	67	336	3
TAP	67	360	7
STR	68	0	3
SI_	68	0	3	96	48	0
STR	68	0	7
SI_	68	0	7	96	48	4
BRK	68	96	3
BRK	68	96	7
TAP	68	192	2
TAP	68	192	7
TAP	68	240	5
TAP	68	264	0
TAP	68	264	5
TAP	68	312	3
TAP	68	336	3
TAP	68	336	4
TAP	69	0	1
STR	69	0	6
SI_	69	0	6	96	48	2
TAP	69	48	5
TAP	69	48	7
TAP	69	96	6
TAP	69	144	0
TAP	69	192	1
TAP	69	192	3
TAP	69	240	4
TAP	69	264	3
TAP	69	264	4
TAP	69	312	6
TAP	69	336	4
TAP	69	336	6
STR	70	0	7
SI_	70	0	7	96	48	4
TAP	70	48	3
TAP	70	72	3
TAP	70	96	7
TAP	70	144	1
STR	70	192	0
SI_	70	192	0	96	48	3
TAP	70	240	4
TAP	70	264	4
TAP	70	288	0
TAP	70	336	6
STR	71	0	7
SF_	71	0	7	96	48	3
TAP	71	48	0
TAP	71	48	6
TAP	71	96	7
TAP	71	192	0
TAP	71	192	7
TAP	71	240	4
TAP	71	264	4
TAP	71	264	6
TAP	71	312	3
TAP	71	336	3
TAP	71	336	4
STR	72	0	1
SI_	72	0	1	96	48	5
STR	72	0	3
SI_	72	0	3	96	48	7
TAP	72	96	1
TAP	72	96	3
TAP	72	192	0
TAP	72	192	7
TAP	72	240	3
TAP	72	264	1
TAP	72	264	3
TAP	72	312	4
TAP	72	336	3
TAP	72	336	4
STR	73	0	4
SI_	73	0	4	96	48	0
STR	73	0	6
SI_	73	0	6	96	48	2
TAP	73	96	4
TAP	73	96	6
STR	73	192	4
SI_	73	192	4	96	48	7
STR	73	288	3
SI_	73	288	3	96	48	0
TAP	73	288	4
TAP	74	0	3
STR	74	0	4
SI_	74	0	4	96	48	7
STR	74	96	3
SI_	74	96	3	96	48	0
TAP	74	96	4
TAP	74	192	3
STR	74	192	4
SI_	74	192	4	96	48	7
TAP	74	288	3
TAP	74	288	4
TAP	75	0	3
TAP	75	0	4
TAP	75	48	3
TAP	75	48	4
TAP	75	96	2
TAP	75	96	5
TAP	75	144	2
TAP	75	144	5
TAP	75	192	1
TAP	75	216	6
TAP	75	240	1
TAP	75	264	6
TAP	75	288	0
TAP	75	312	7
TAP	75	336	0
TAP	75	360	7
STR	76	0	1
SLR	76	0	1	96	2832	0
STR	76	0	6
SLL	76	0	6	96	288	7
BRK	76	96	1
BRK	76	96	6
TAP	77	240	5
TAP	77	264	4
TAP	78	48	4
HLD	78	72	5	1800
STR	83	0	5
SCL	83	0	5	96	192	5
BRK	83	288	3

T_REC_TAP	571
T_REC_BRK	11
T_REC_XTP	0
T_REC_HLD	18
T_REC_XHO	0
T_REC_STR	88
T_REC_BST	0
T_REC_XST	0
T_REC_TTP	0
T_REC_THO	0
T_REC_SLD	89
T_REC_ALL	777
T_NUM_TAP	659
T_NUM_BRK	11
T_NUM_HLD	18
T_NUM_SLD	89
T_NUM_ALL	777
T_JUDGE_TAP	670
T_JUDGE_HLD	58
T_JUDGE_SLD	89
T_JUDGE_ALL	817
TTM_EACHPAIRS	124
TTM_SCR_TAP	329500
TTM_SCR_BRK	28600
TTM_SCR_HLD	18000
TTM_SCR_SLD	133500
TTM_SCR_ALL	509600
TTM_SCR_S	493250
TTM_SCR_SS	508500
TTM_RAT_ACV	10021

