VERSION	0.00.00	1.03.00
FES_MODE	0
BPM_DEF	160.000	160.000	160.000	160.000
MET_DEF	4	4
RESOLUTION	384
CLK_DEF	384
COMPATIBLE_CODE	MA2

BPM	0	0	160.000

TAP	3	0	0
TAP	3	0	7
TAP	3	96	0
TAP	3	96	7
STR	3	192	0
SI_	3	192	0	96	48	4
TAP	3	192	7
TAP	4	0	3
TAP	4	0	6
TAP	4	96	3
TAP	4	96	6
TAP	4	192	3
STR	4	192	6
SI_	4	192	6	96	48	2
TAP	5	0	1
TAP	5	0	3
TAP	5	96	1
TAP	5	96	3
STR	5	192	1
SI_	5	192	1	96	48	4
TAP	5	192	3
TAP	6	0	3
TAP	6	0	5
TAP	6	96	3
TAP	6	96	5
TAP	6	192	3
STR	6	192	5
SI_	6	192	5	96	48	0
HLD	7	0	1	96
TAP	7	96	2
HLD	7	192	4	96
TAP	7	288	3
HLD	8	0	2	96
TAP	8	96	3
HLD	8	192	6	96
TAP	8	288	5
HLD	9	0	3	96
TAP	9	96	4
HLD	9	192	5	96
TAP	9	288	4
TAP	10	0	3
TAP	10	0	4
TAP	11	0	3
TAP	11	48	4
TAP	11	96	3
HLD	11	192	3	96
TAP	11	192	4
TAP	11	288	0
TAP	12	0	4
TAP	12	48	3
TAP	12	96	4
TAP	12	192	3
HLD	12	192	4	96
TAP	12	288	7
TAP	13	0	3
TAP	13	48	4
TAP	13	96	3
HLD	13	192	3	96
TAP	13	192	4
TAP	13	288	0
TAP	14	0	1
TAP	14	48	0
TAP	14	96	1
TAP	14	192	6
TAP	14	240	7
TAP	14	288	6
BRK	15	0	0
BRK	15	0	1
TAP	15	96	0
TAP	15	96	1
HLD	15	192	2	96
TAP	15	288	7
TAP	16	0	6
TAP	16	48	7
TAP	16	96	6
HLD	16	192	5	96
TAP	16	288	0
TAP	17	0	1
TAP	17	48	0
TAP	17	96	1
HLD	17	192	2	96
TAP	17	288	7
TAP	18	0	6
TAP	18	48	7
TAP	18	96	6
TAP	18	144	7
STR	18	192	6
SCL	18	192	6	96	48	3
TAP	19	0	1
TAP	19	48	1
TAP	19	96	7
TAP	19	144	7
TAP	19	192	0
TAP	19	240	0
TAP	19	288	1
TAP	19	288	7
TAP	20	0	3
TAP	20	0	5
TAP	20	96	2
TAP	20	96	4
TAP	20	192	5
TAP	20	240	4
TAP	20	288	5
TAP	21	0	2
TAP	21	48	2
TAP	21	96	4
TAP	21	144	4
TAP	21	192	3
TAP	21	240	3
TAP	21	288	2
TAP	21	288	4
TAP	22	0	0
TAP	22	0	6
TAP	22	96	1
TAP	22	96	7
TAP	22	192	6
TAP	22	240	7
TAP	22	288	0
TAP	22	288	6
STR	23	0	0
SI_	23	0	0	96	48	3
STR	23	192	7
SI_	23	192	7	96	48	4
TAP	24	0	0
TAP	24	48	0
HLD	24	96	0	96
TAP	24	192	7
TAP	24	240	7
HLD	24	288	7	96
HLD	25	0	1	96
HLD	25	96	2	96
HLD	25	192	3	96
HLD	25	288	4	96
HLD	26	0	6	96
HLD	26	96	0	96
HLD	26	192	2	96
TAP	26	288	3
BRK	27	0	2
BRK	27	0	3
TAP	27	96	1
TAP	27	96	4
TAP	27	192	2
TAP	27	240	3
TAP	27	288	2
TAP	27	336	2
TAP	28	0	5
TAP	28	48	4
TAP	28	96	5
TAP	28	144	5
TAP	28	192	2
TAP	28	240	3
TAP	28	288	2
TAP	28	288	4
TAP	29	0	5
TAP	29	48	4
TAP	29	96	3
TAP	29	96	5
TAP	29	192	2
TAP	29	240	3
TAP	29	288	2
TAP	29	288	4
TAP	30	0	6
TAP	30	48	7
TAP	30	96	6
TAP	30	144	6
TAP	30	192	1
TAP	30	240	0
TAP	30	288	1
TAP	30	336	1
TAP	31	0	6
TAP	31	48	7
TAP	31	96	0
TAP	31	96	6
TAP	31	192	1
TAP	31	240	0
TAP	31	288	1
TAP	31	288	7
TAP	32	0	6
TAP	32	48	4
TAP	32	96	5
TAP	32	144	3
TAP	32	192	4
TAP	32	240	2
TAP	32	288	1
TAP	32	288	3
TAP	33	0	0
TAP	33	48	7
TAP	33	96	1
TAP	33	144	6
TAP	33	192	2
TAP	33	240	5
TAP	33	288	3
TAP	33	288	4
TAP	34	0	4
TAP	34	0	5
TAP	34	96	3
TAP	34	96	6
TAP	34	192	2
TAP	34	192	7
BRK	34	288	0
BRK	34	288	1
STR	35	0	1
SV_	35	0	1	96	96	3
STR	35	192	5
SV_	35	192	5	96	96	7
STR	36	0	2
SV_	36	0	2	96	96	4
STR	36	192	6
SV_	36	192	6	96	96	0
STR	37	0	3
SV_	37	0	3	96	96	5
STR	37	192	7
SV_	37	192	7	96	96	1
STR	38	0	2
SCL	38	0	2	96	96	5
TAP	38	288	3
TAP	38	288	4
TAP	39	0	5
TAP	39	0	7
TAP	39	96	5
TAP	39	96	7
TAP	39	144	6
TAP	39	192	0
TAP	39	240	7
TAP	39	288	1
TAP	39	288	6
TAP	40	0	0
TAP	40	0	2
TAP	40	96	0
TAP	40	96	2
TAP	40	144	1
TAP	40	192	7
TAP	40	240	0
TAP	40	288	1
TAP	40	288	6
TAP	41	0	5
TAP	41	48	4
TAP	41	96	5
TAP	41	144	3
TAP	41	192	6
TAP	41	240	3
TAP	41	288	4
TAP	41	288	5
STR	42	0	3
SCL	42	0	3	96	96	0
STR	42	0	7
SCL	42	0	7	96	96	4
BRK	42	288	1
BRK	42	288	6
TAP	43	0	3
TAP	43	48	3
TAP	43	96	4
TAP	43	144	4
TAP	43	192	5
TAP	43	240	5
TAP	43	288	4
TAP	43	336	4
TAP	44	0	3
TAP	44	48	3
TAP	44	96	4
TAP	44	144	4
STR	44	192	5
SI_	44	192	5	96	48	0
TAP	44	288	2
TAP	45	0	1
TAP	45	48	1
TAP	45	96	0
TAP	45	144	0
TAP	45	192	7
TAP	45	240	7
TAP	45	288	0
TAP	45	336	0
TAP	46	0	1
TAP	46	48	1
TAP	46	96	0
TAP	46	144	0
STR	46	192	7
SI_	46	192	7	96	48	3
TAP	46	288	1
HLD	47	0	1	192
TAP	47	96	0
TAP	47	144	0
STR	47	192	0
SI_	47	192	0	96	48	4
HLD	48	0	6	192
TAP	48	96	7
TAP	48	144	7
STR	48	192	7
SI_	48	192	7	96	48	3
TAP	49	0	0
TAP	49	0	1
TAP	49	96	2
TAP	49	96	3
TAP	49	192	4
TAP	49	192	5
TAP	49	288	6
TAP	49	288	7
TAP	50	0	0
TAP	50	48	1
TAP	50	96	2
TAP	50	144	3
TAP	50	192	4
TAP	50	240	5
STR	50	288	6
SCL	50	288	6	96	240	0
HLD	52	0	7	384
TAP	52	192	0
TAP	52	336	0
HLD	53	0	0	384
TAP	53	192	7
TAP	53	336	7
HLD	54	0	7	192
TAP	54	144	6
HLD	54	192	6	192
TAP	54	336	5
TAP	55	0	5
HLD	55	192	4	72
HLD	55	192	5	72
TAP	55	336	4
TAP	55	336	5
TAP	56	0	3
TAP	56	0	6
HLD	56	192	2	72
HLD	56	192	3	72
TAP	56	336	2
TAP	56	336	3
TAP	57	0	1
TAP	57	0	4
TAP	57	144	3
TAP	57	144	4
HLD	57	192	3	72
HLD	57	192	4	72
TAP	57	336	4
STR	58	0	4
SCR	58	0	4	96	96	7
TAP	58	144	3
STR	58	192	3
SCL	58	192	3	96	96	0
TAP	58	336	4
STR	59	0	4
SF_	59	0	4	96	96	0
HLD	60	0	1	192
TAP	60	144	3
HLD	60	192	3	192
TAP	60	336	4
HLD	61	0	4	192
TAP	61	144	5
TAP	61	192	5
TAP	61	336	6
HLD	62	0	6	192
TAP	62	144	4
HLD	62	192	4	192
TAP	62	336	3
TAP	63	0	3
HLD	63	192	2	72
HLD	63	192	3	72
TAP	63	336	2
TAP	63	336	3
TAP	64	0	1
TAP	64	0	4
HLD	64	192	4	72
HLD	64	192	5	72
TAP	64	336	4
TAP	64	336	5
TAP	65	0	3
TAP	65	0	6
TAP	65	144	3
TAP	65	144	4
HLD	65	192	3	72
HLD	65	192	4	72
TAP	65	336	3
TAP	65	336	4
HLD	66	0	2	72
HLD	66	0	5	72
TAP	66	144	2
TAP	66	144	5
HLD	66	192	1	72
HLD	66	192	6	72
TAP	66	336	1
TAP	66	336	6
HLD	67	0	0	96
HLD	67	0	7	96
STR	67	192	0
SI_	67	192	0	96	48	3
STR	67	192	7
SI_	67	192	7	96	48	4
HLD	68	0	2	72
TAP	68	72	3
TAP	68	144	1
HLD	68	192	5	72
TAP	68	264	4
TAP	68	336	6
STR	69	0	3
SCL	69	0	3	96	48	0
TAP	69	144	7
STR	69	192	7
SCL	69	192	7	96	48	4
HLD	70	0	1	72
TAP	70	72	0
TAP	70	144	2
HLD	70	192	6	72
TAP	70	264	7
TAP	70	336	5
STR	71	0	0
SI_	71	0	0	96	48	4
HLD	71	192	3	72
HLD	71	192	5	72
TAP	71	336	3
TAP	71	336	5
STR	72	0	3
SI_	72	0	3	96	48	0
STR	72	0	5
SI_	72	0	5	96	48	0
HLD	72	192	2	72
HLD	72	192	4	72
TAP	72	336	2
TAP	72	336	4
STR	73	0	2
SI_	73	0	2	96	48	7
STR	73	0	4
SI_	73	0	4	96	48	7
HLD	73	192	4	72
HLD	73	192	5	72
TAP	73	336	3
TAP	73	336	6
STR	74	0	3
SCL	74	0	3	96	48	0
TAP	74	144	4
STR	74	192	4
SCR	74	192	4	96	48	7
TAP	74	336	3
TAP	75	0	3
TAP	75	48	3
TAP	75	96	4
TAP	75	144	4
TAP	75	192	2
TAP	75	240	2
TAP	75	288	6
TAP	75	336	6
BST	76	96	0
SXL	76	96	0	96	1056	3
BST	76	96	4
SXL	76	96	4	96	1056	7

T_REC_TAP	301
T_REC_BRK	8
T_REC_XTP	0
T_REC_HLD	60
T_REC_XHO	0
T_REC_STR	35
T_REC_BST	2
T_REC_XST	0
T_REC_TTP	0
T_REC_THO	0
T_REC_SLD	37
T_REC_ALL	443
T_NUM_TAP	336
T_NUM_BRK	10
T_NUM_HLD	60
T_NUM_SLD	37
T_NUM_ALL	443
T_JUDGE_TAP	346
T_JUDGE_HLD	150
T_JUDGE_SLD	37
T_JUDGE_ALL	533
TTM_EACHPAIRS	84
TTM_SCR_TAP	168000
TTM_SCR_BRK	26000
TTM_SCR_HLD	60000
TTM_SCR_SLD	55500
TTM_SCR_ALL	309500
TTM_SCR_S	299250
TTM_SCR_SS	308500
TTM_RAT_ACV	10032

