VERSION	0.00.00	1.03.00
FES_MODE	0
BPM_DEF	160.000	160.000	160.000	160.000
MET_DEF	4	4
RESOLUTION	384
CLK_DEF	384
COMPATIBLE_CODE	MA2

BPM	0	0	160.000

TAP	3	0	2
TAP	3	96	3
TAP	3	192	2
TAP	3	288	3
TAP	4	0	5
TAP	4	96	4
TAP	4	192	5
TAP	4	288	4
TAP	5	0	2
TAP	5	96	4
TAP	5	192	2
TAP	5	288	4
TAP	6	0	5
TAP	6	96	3
TAP	6	192	5
TAP	6	288	3
TAP	7	0	2
TAP	7	96	2
TAP	7	96	3
TAP	7	192	2
TAP	7	288	2
TAP	7	288	3
TAP	8	0	5
TAP	8	96	4
TAP	8	96	5
TAP	8	192	5
TAP	8	288	4
TAP	8	288	5
TAP	9	0	2
TAP	9	96	3
TAP	9	96	4
TAP	9	192	5
TAP	9	288	3
TAP	9	288	4
BRK	10	0	2
BRK	10	0	5
TAP	11	0	3
TAP	11	96	2
HLD	11	192	1	96
TAP	11	288	0
TAP	12	0	7
TAP	12	96	6
HLD	12	192	5	96
TAP	12	288	4
TAP	13	0	3
TAP	13	96	2
TAP	13	96	3
TAP	13	192	4
TAP	13	288	4
TAP	13	288	5
TAP	14	0	3
TAP	14	0	4
TAP	14	96	3
TAP	14	96	4
TAP	14	192	2
TAP	14	192	5
TAP	14	288	2
TAP	14	288	5
BRK	15	0	1
BRK	15	0	6
TAP	15	96	0
TAP	15	192	7
HLD	15	288	6	96
TAP	16	0	7
TAP	16	96	0
TAP	16	192	1
HLD	16	288	2	96
TAP	17	0	3
HLD	17	96	5	96
TAP	17	192	4
HLD	17	288	2	96
TAP	18	0	3
TAP	18	96	3
TAP	18	96	4
TAP	18	192	2
TAP	18	192	5
BRK	18	288	1
BRK	18	288	6
TAP	19	0	7
TAP	19	48	7
TAP	19	96	7
TAP	19	192	0
TAP	19	240	0
TAP	19	288	0
HLD	20	0	6	96
TAP	20	96	7
HLD	20	192	1	96
TAP	20	288	0
TAP	21	0	7
TAP	21	96	6
HLD	21	192	5	96
TAP	21	288	4
TAP	22	0	3
TAP	22	0	4
TAP	22	96	3
TAP	22	96	4
HLD	22	192	2	96
HLD	22	192	5	96
STR	23	0	3
SI_	23	0	3	96	144	0
STR	23	0	4
SI_	23	0	4	96	144	7
STR	24	0	0
SI_	24	0	0	96	120	2
STR	24	0	7
SI_	24	0	7	96	120	5
HLD	25	0	2	96
TAP	25	96	3
HLD	25	192	5	96
TAP	25	288	4
TAP	26	0	2
TAP	26	0	3
TAP	26	96	3
TAP	26	96	4
TAP	26	192	4
TAP	26	192	5
TAP	26	288	3
TAP	26	288	4
BRK	27	0	2
BRK	27	0	5
HLD	27	96	1	96
TAP	27	192	0
TAP	27	288	7
TAP	27	336	7
TAP	28	0	7
HLD	28	96	6	96
TAP	28	192	7
TAP	28	288	0
TAP	28	336	0
TAP	29	0	0
TAP	29	96	1
TAP	29	192	2
TAP	29	288	3
TAP	30	0	4
TAP	30	96	4
TAP	30	96	5
TAP	30	192	3
TAP	30	288	2
TAP	30	288	3
TAP	31	0	1
TAP	31	96	0
HLD	31	192	6	96
TAP	31	288	7
TAP	32	0	5
TAP	32	96	4
HLD	32	192	2	96
TAP	32	288	3
TAP	33	0	3
TAP	33	0	4
TAP	33	96	2
TAP	33	96	5
TAP	33	192	1
TAP	33	192	6
TAP	33	288	0
TAP	33	288	7
STR	34	0	0
SI_	34	0	0	96	144	3
STR	34	0	7
SI_	34	0	7	96	144	4
HLD	35	0	5	288
TAP	35	96	4
TAP	35	192	4
TAP	35	288	4
HLD	36	0	2	288
TAP	36	96	3
TAP	36	192	3
TAP	36	288	3
HLD	37	0	1	288
TAP	37	96	0
TAP	37	192	0
TAP	37	288	0
HLD	38	0	6	288
TAP	38	96	7
TAP	38	192	7
TAP	38	288	7
STR	39	0	6
SI_	39	0	6	96	144	1
STR	40	0	2
SI_	40	0	2	96	144	5
TAP	41	0	4
TAP	41	48	4
TAP	41	96	4
TAP	41	192	3
TAP	41	240	3
TAP	41	288	3
HLD	42	0	3	192
HLD	42	0	4	192
BRK	42	288	2
BRK	42	288	5
TAP	43	0	1
TAP	43	96	0
HLD	43	192	6	96
HLD	43	192	7	96
TAP	44	0	5
TAP	44	96	4
HLD	44	192	2	96
HLD	44	192	3	96
TAP	45	0	4
TAP	45	96	3
TAP	45	96	5
TAP	45	192	3
TAP	45	288	2
TAP	45	288	4
TAP	46	0	1
TAP	46	96	0
TAP	46	192	7
TAP	46	288	6
HLD	47	0	0	96
HLD	47	0	7	96
TAP	47	192	6
TAP	47	288	5
HLD	48	0	3	96
HLD	48	0	4	96
TAP	48	192	2
TAP	48	288	1
TAP	49	0	0
TAP	49	48	0
TAP	49	96	0
TAP	49	192	7
TAP	49	240	7
TAP	49	288	7
TAP	50	0	0
TAP	50	0	7
TAP	50	96	1
TAP	50	96	6
TAP	50	192	2
TAP	50	192	5
TAP	50	288	3
TAP	50	288	4
STR	51	0	3
SCL	51	0	3	96	168	0
STR	51	0	4
SCR	51	0	4	96	168	7
HLD	52	0	1	192
HLD	52	192	0	192
HLD	53	0	7	192
TAP	53	192	6
HLD	54	0	5	192
HLD	54	192	4	192
HLD	55	0	3	192
TAP	55	192	2
STR	56	0	4
SI_	56	0	4	96	168	0
STR	57	0	3
SI_	57	0	3	96	168	7
HLD	58	0	7	192
HLD	58	192	0	192
HLD	59	0	7	192
BRK	59	192	0
STR	60	0	2
SXR	60	0	2	96	576	7
STR	60	0	3
SXL	60	0	3	96	576	6
STR	62	0	0
SXR	62	0	0	96	576	5
STR	62	0	1
SXL	62	0	1	96	576	4
HLD	64	0	2	192
TAP	64	192	3
HLD	65	0	5	192
TAP	65	192	4
TAP	66	0	3
TAP	66	96	2
TAP	66	192	1
TAP	66	288	0
HLD	67	0	7	192
BRK	67	192	0
TAP	68	0	0
TAP	68	48	0
TAP	68	96	0
TAP	68	192	6
TAP	68	192	7
TAP	68	288	0
TAP	68	288	5
BRK	69	0	1
BRK	69	0	4
TAP	69	192	2
TAP	69	192	3
TAP	69	288	1
TAP	69	288	4
HLD	70	0	5	96
TAP	70	96	4
HLD	70	192	2	96
TAP	70	288	3
BRK	71	0	2
BRK	71	0	5
TAP	71	192	4
TAP	71	192	5
TAP	71	288	2
TAP	71	288	3
TAP	72	0	0
TAP	72	0	1
TAP	72	192	0
TAP	72	192	1
TAP	72	288	6
TAP	72	288	7
TAP	73	0	4
TAP	73	0	5
TAP	73	192	2
TAP	73	192	3
TAP	73	288	1
TAP	73	288	4
TAP	74	0	0
TAP	74	48	0
TAP	74	96	0
TAP	74	192	7
TAP	74	240	7
TAP	74	288	7
BRK	75	0	1
BRK	75	0	6
HLD	75	192	2	96
HLD	75	192	5	96
TAP	76	0	3
TAP	76	0	4
STR	76	96	3
SXR	76	96	3	96	672	0
STR	76	96	4
SXL	76	96	4	96	672	7

T_REC_TAP	217
T_REC_BRK	18
T_REC_XTP	0
T_REC_HLD	47
T_REC_XHO	0
T_REC_STR	18
T_REC_BST	0
T_REC_XST	0
T_REC_TTP	0
T_REC_THO	0
T_REC_SLD	18
T_REC_ALL	318
T_NUM_TAP	235
T_NUM_BRK	18
T_NUM_HLD	47
T_NUM_SLD	18
T_NUM_ALL	318
T_JUDGE_TAP	253
T_JUDGE_HLD	138
T_JUDGE_SLD	18
T_JUDGE_ALL	409
TTM_EACHPAIRS	67
TTM_SCR_TAP	117500
TTM_SCR_BRK	46800
TTM_SCR_HLD	47000
TTM_SCR_SLD	27000
TTM_SCR_ALL	238300
TTM_SCR_S	229450
TTM_SCR_SS	236500
TTM_RAT_ACV	10076

