VERSION	0.00.00	1.03.00
FES_MODE	0
BPM_DEF	160.000	160.000	160.000	160.000
MET_DEF	4	4
RESOLUTION	384
CLK_DEF	384
COMPATIBLE_CODE	MA2

BPM	0	0	160.000

TAP	3	0	3
TAP	3	192	3
TAP	4	0	4
TAP	4	192	4
TAP	5	0	3
TAP	5	192	3
TAP	6	0	4
TAP	6	192	4
TAP	7	0	3
TAP	7	192	3
TAP	7	192	4
TAP	8	0	4
TAP	8	192	3
TAP	8	192	4
TAP	9	0	3
TAP	9	192	3
TAP	9	192	4
TAP	10	0	3
TAP	10	0	4
TAP	11	0	3
TAP	11	192	3
TAP	12	0	2
TAP	12	192	2
TAP	13	0	1
TAP	13	192	1
TAP	14	0	0
TAP	14	96	0
TAP	14	192	0
TAP	15	0	0
TAP	15	0	7
TAP	15	192	7
TAP	16	0	6
TAP	16	192	6
TAP	17	0	5
TAP	17	192	5
TAP	18	0	3
TAP	18	0	4
TAP	19	0	4
TAP	19	96	4
TAP	19	192	4
TAP	20	0	5
TAP	20	96	5
TAP	20	192	5
TAP	21	0	6
TAP	21	96	6
TAP	21	192	6
TAP	22	0	7
TAP	22	96	7
TAP	22	192	7
TAP	23	0	0
TAP	23	0	7
TAP	23	192	0
TAP	23	192	7
TAP	24	0	0
TAP	24	96	0
TAP	24	192	0
TAP	25	0	1
TAP	25	96	1
TAP	25	192	1
TAP	26	0	2
TAP	26	96	2
TAP	26	192	2
BRK	27	0	3
TAP	27	192	3
TAP	28	0	4
TAP	28	96	4
TAP	28	192	4
TAP	29	0	3
TAP	29	96	3
TAP	29	192	2
TAP	29	288	2
TAP	30	0	1
TAP	30	96	1
TAP	30	192	0
TAP	30	192	7
TAP	31	0	7
TAP	31	96	7
TAP	31	192	6
TAP	31	288	6
TAP	32	0	5
TAP	32	96	5
TAP	32	192	4
TAP	32	288	4
TAP	33	0	3
TAP	33	0	4
TAP	33	192	3
TAP	33	192	4
TAP	34	0	2
TAP	34	0	3
TAP	34	192	4
TAP	34	192	5
TAP	35	0	4
TAP	35	96	4
TAP	35	192	3
TAP	35	192	4
TAP	36	0	2
TAP	36	96	2
TAP	36	192	2
TAP	36	192	3
TAP	37	0	5
TAP	37	96	5
TAP	37	192	4
TAP	37	192	5
TAP	38	0	3
TAP	38	96	3
TAP	38	192	3
TAP	38	192	4
TAP	39	0	4
TAP	39	96	4
TAP	39	192	5
TAP	40	0	5
TAP	40	96	5
TAP	40	192	6
TAP	41	0	6
TAP	41	96	6
TAP	41	192	7
TAP	42	0	0
TAP	42	0	7
BRK	42	192	0
BRK	42	192	7
TAP	43	0	0
TAP	43	96	0
TAP	43	192	1
TAP	44	0	1
TAP	44	96	1
TAP	44	192	2
TAP	45	0	2
TAP	45	96	2
TAP	45	192	3
TAP	46	0	3
TAP	46	96	3
TAP	46	192	4
TAP	47	0	4
TAP	47	0	5
TAP	47	192	4
TAP	47	192	5
TAP	48	0	3
TAP	48	0	4
TAP	48	192	3
TAP	48	192	4
TAP	49	0	2
TAP	49	0	3
TAP	49	192	2
TAP	49	192	3
TAP	50	0	3
TAP	50	0	4
TAP	50	96	3
TAP	50	96	4
TAP	50	192	3
TAP	50	192	4
BRK	51	0	2
BRK	51	0	5
HLD	52	0	1	192
TAP	53	0	1
TAP	53	192	1
HLD	54	0	0	192
TAP	55	0	0
TAP	55	192	0
HLD	56	0	7	192
TAP	57	0	7
TAP	57	192	7
HLD	58	0	6	192
TAP	59	0	6
TAP	59	192	6
STR	60	0	6
SI_	60	0	6	96	288	2
TAP	61	192	1
TAP	62	0	0
TAP	62	192	0
TAP	63	0	0
TAP	63	0	7
TAP	63	192	0
STR	64	0	1
SI_	64	0	1	96	288	5
TAP	65	192	6
TAP	66	0	7
TAP	66	192	7
TAP	67	0	0
TAP	67	0	7
TAP	67	192	0
TAP	67	192	7
BRK	68	0	0
TAP	68	96	0
TAP	68	192	0
TAP	69	0	7
TAP	69	96	7
TAP	69	192	7
TAP	70	0	6
TAP	70	96	6
TAP	70	192	5
TAP	70	288	5
TAP	71	0	3
TAP	71	0	4
TAP	71	192	2
TAP	71	192	3
TAP	71	288	2
TAP	71	288	3
TAP	72	0	2
TAP	72	0	3
TAP	72	192	4
TAP	72	192	5
TAP	72	288	4
TAP	72	288	5
TAP	73	0	4
TAP	73	0	5
TAP	73	192	3
TAP	73	288	3
TAP	74	0	2
TAP	74	96	2
TAP	74	192	1
TAP	74	288	1
TAP	75	0	0
TAP	75	0	7
TAP	75	192	0
TAP	75	288	7
TAP	76	0	0
TAP	76	0	7
BRK	76	96	1
BRK	76	96	6

T_REC_TAP	203
T_REC_BRK	8
T_REC_XTP	0
T_REC_HLD	4
T_REC_XHO	0
T_REC_STR	2
T_REC_BST	0
T_REC_XST	0
T_REC_TTP	0
T_REC_THO	0
T_REC_SLD	2
T_REC_ALL	219
T_NUM_TAP	205
T_NUM_BRK	8
T_NUM_HLD	4
T_NUM_SLD	2
T_NUM_ALL	219
T_JUDGE_TAP	213
T_JUDGE_HLD	16
T_JUDGE_SLD	2
T_JUDGE_ALL	231
TTM_EACHPAIRS	42
TTM_SCR_TAP	102500
TTM_SCR_BRK	20800
TTM_SCR_HLD	4000
TTM_SCR_SLD	3000
TTM_SCR_ALL	130300
TTM_SCR_S	125650
TTM_SCR_SS	129500
TTM_RAT_ACV	10061

