VERSION	0.00.00	1.03.00
FES_MODE	0
BPM_DEF	190.000	190.000	190.000	190.000
MET_DEF	4	4
RESOLUTION	384
CLK_DEF	384
COMPATIBLE_CODE	MA2

BPM	0	0	190.000

TAP	2	0	6
TAP	2	0	7
TAP	2	96	6
TAP	2	96	7
TAP	2	192	0
TAP	2	192	1
TAP	2	288	0
TAP	2	288	1
TAP	3	0	4
TAP	3	0	5
TAP	3	96	3
TAP	3	96	4
TAP	3	192	2
TAP	3	192	3
TAP	3	288	1
HLD	3	336	1	96
TAP	4	48	0
TAP	4	96	1
TAP	4	144	0
TAP	4	192	1
TAP	4	240	0
HLD	4	240	2	96
HLD	4	336	6	96
TAP	5	48	7
TAP	5	96	6
TAP	5	144	7
TAP	5	192	0
TAP	5	192	5
TAP	5	240	4
TAP	5	288	3
TAP	5	336	2
TAP	6	0	0
TAP	6	0	1
TAP	6	96	0
TAP	6	96	1
TAP	6	192	6
TAP	6	192	7
TAP	6	288	6
TAP	6	288	7
TAP	7	0	2
TAP	7	0	3
TAP	7	96	3
TAP	7	96	4
TAP	7	192	4
TAP	7	192	5
TAP	7	288	6
HLD	7	336	6	96
TAP	8	48	7
TAP	8	96	6
TAP	8	144	7
TAP	8	192	6
TAP	8	240	5
TAP	8	240	7
TAP	8	288	0
TAP	8	288	4
TAP	8	336	1
TAP	8	336	3
HLD	9	0	2	288
TAP	9	96	3
TAP	9	144	3
TAP	9	240	3
TAP	9	288	3
HLD	10	0	7	288
TAP	10	96	6
TAP	10	144	6
TAP	10	240	6
TAP	10	288	6
HLD	11	0	1	96
TAP	11	96	2
HLD	11	144	3	96
TAP	11	240	2
TAP	11	288	1
TAP	11	336	1
HLD	12	0	0	96
HLD	12	96	7	96
HLD	12	192	6	96
TAP	12	288	5
HLD	12	336	4	96
TAP	13	48	5
HLD	13	96	6	96
TAP	13	192	4
HLD	13	240	3	96
TAP	13	336	5
STR	14	0	2
SLR	14	0	2	96	144	0
STR	14	0	6
SLL	14	0	6	96	144	0
STR	15	0	0
SI_	15	0	0	96	48	4
STR	15	96	7
SI_	15	96	7	96	48	5
TAP	15	144	7
STR	15	240	1
SI_	15	240	1	96	48	3
TAP	15	288	1
HLD	16	0	7	144
HLD	16	96	0	0
HLD	16	144	0	0
TAP	16	288	1
TAP	16	288	6
TAP	17	0	2
TAP	17	48	3
TAP	17	96	1
TAP	17	96	4
TAP	17	192	5
TAP	17	240	4
TAP	17	288	3
TAP	17	288	6
HLD	18	0	4	192
BRK	18	48	3
BRK	18	96	3
BRK	18	144	3
BRK	18	192	3
TAP	18	288	1
TAP	18	288	6
STR	19	0	0
SI_	19	0	0	96	48	4
TAP	19	96	7
STR	19	144	7
SI_	19	144	7	96	48	3
TAP	19	240	1
STR	19	288	1
SCR	19	288	1	96	96	4
STR	20	0	4
SCR	20	0	4	96	96	7
STR	20	96	7
SCR	20	96	7	96	96	2
TAP	20	192	3
TAP	20	288	4
HLD	20	336	4	96
TAP	21	48	5
TAP	21	96	4
HLD	21	144	3	96
STR	21	240	2
SCR	21	240	2	96	48	5
TAP	21	336	0
STR	22	0	0
SI_	22	0	0	96	48	4
TAP	22	96	7
HLD	22	144	7	144
TAP	22	288	0
STR	23	0	1
SI_	23	0	1	96	48	4
TAP	23	48	1
TAP	23	96	7
STR	23	144	7
SI_	23	144	7	96	48	3
TAP	23	240	0
TAP	23	288	0
TAP	24	0	1
TAP	24	0	5
STR	24	48	1
SUR	24	48	1	96	48	5
STR	24	48	5
SUR	24	48	5	96	48	1
TAP	24	288	0
TAP	24	288	7
STR	25	0	7
SI_	25	0	7	96	48	3
TAP	25	48	7
STR	25	96	0
SI_	25	96	0	96	72	2
TAP	25	144	0
STR	25	192	6
SI_	25	192	6	96	48	4
TAP	25	240	6
TAP	25	288	3
HLD	25	336	3	240
BRK	26	48	4
BRK	26	96	4
BRK	26	144	4
BRK	26	192	4
TAP	26	288	1
TAP	26	288	6
STR	27	0	2
SXR	27	0	2	96	120	4
TAP	27	144	5
TAP	27	192	5
TAP	27	288	0
TAP	27	288	7
STR	28	0	2
SXR	28	0	2	96	120	4
TAP	28	144	5
TAP	28	192	5
TAP	28	288	0
TAP	28	288	7
STR	29	0	5
SXL	29	0	5	96	120	3
TAP	29	144	2
TAP	29	192	2
TAP	29	288	0
TAP	29	288	7
STR	30	0	5
SXL	30	0	5	96	120	3
TAP	30	144	2
TAP	30	192	2
TAP	30	288	0
TAP	30	288	7
STR	31	0	1
SXL	31	0	1	96	120	7
TAP	31	144	5
TAP	31	192	5
TAP	31	288	0
TAP	31	288	6
STR	32	0	1
SXL	32	0	1	96	120	7
TAP	32	144	5
TAP	32	192	5
TAP	32	288	0
TAP	32	288	6
TAP	33	0	1
BRK	33	0	7
BRK	33	192	0
TAP	33	192	6
TAP	34	0	1
BRK	34	0	7
BRK	34	96	0
TAP	34	96	6
TAP	34	192	1
BRK	34	192	7
TAP	34	264	3
TAP	34	288	4
TAP	34	336	3
TAP	34	336	5
TAP	35	0	2
BRK	35	0	6
BRK	35	192	0
TAP	35	192	4
TAP	36	0	2
BRK	36	0	7
BRK	36	96	0
TAP	36	96	5
TAP	36	192	2
BRK	36	192	7
TAP	36	240	3
TAP	36	264	4
TAP	36	288	3
TAP	36	336	2
TAP	36	336	5
STR	37	0	1
SI_	37	0	1	96	48	4
TAP	37	48	1
TAP	37	96	7
TAP	37	144	7
STR	37	192	6
SI_	37	192	6	96	48	3
TAP	37	240	6
TAP	37	288	0
TAP	37	336	0
TAP	38	0	1
STR	38	48	1
SUR	38	48	1	96	144	4
TAP	38	96	7
HLD	38	144	7	144
STR	39	0	6
SI_	39	0	6	96	48	3
TAP	39	48	6
TAP	39	96	0
TAP	39	144	0
STR	39	192	1
SI_	39	192	1	96	48	4
TAP	39	240	1
TAP	39	288	7
TAP	39	336	7
TAP	40	0	6
STR	40	48	6
SUL	40	48	6	96	144	3
TAP	40	96	0
HLD	40	144	0	144
STR	41	0	0
SCR	41	0	0	96	96	4
STR	41	96	4
SCR	41	96	4	96	96	0
STR	41	192	0
SCR	41	192	0	96	96	4
STR	41	288	4
SCR	41	288	4	96	96	0
STR	42	0	0
SCR	42	0	0	96	96	4
STR	42	96	4
SCR	42	96	4	96	96	0
STR	42	192	0
SCR	42	192	0	96	96	4
STR	42	288	4
SCR	42	288	4	96	144	2
HLD	43	0	7	336
STR	43	240	3
SCL	43	240	3	96	240	4
TAP	43	288	3
TAP	43	336	3
TAP	44	288	1
TAP	44	288	6
STR	45	0	5
SI_	45	0	5	96	48	0
TAP	45	48	5
TAP	45	96	3
TAP	45	144	3
STR	45	192	2
SI_	45	192	2	96	48	7
TAP	45	240	2
TAP	45	288	4
TAP	45	336	4
TAP	46	0	5
STR	46	48	5
SXL	46	48	5	96	144	0
TAP	46	96	3
HLD	46	144	3	144
STR	47	0	2
SI_	47	0	2	96	48	7
TAP	47	48	2
TAP	47	96	4
TAP	47	144	4
STR	47	192	5
SI_	47	192	5	96	48	0
TAP	47	240	5
TAP	47	288	3
TAP	47	336	3
TAP	48	0	2
STR	48	48	2
SXR	48	48	2	96	144	7
TAP	48	96	4
HLD	48	144	4	144
STR	49	0	4
SCR	49	0	4	96	96	0
STR	49	96	0
SCR	49	96	0	96	96	4
STR	49	192	4
SCR	49	192	4	96	96	0
STR	49	288	0
SCR	49	288	0	96	96	4
STR	50	0	4
SCR	50	0	4	96	96	0
STR	50	96	0
SCR	50	96	0	96	96	4
STR	50	192	4
SCR	50	192	4	96	96	0
STR	50	288	0
SCR	50	288	0	96	288	7
HLD	51	0	3	288
TAP	52	48	3
TAP	52	48	4
TAP	52	144	3
TAP	52	192	4
BRK	52	288	1
BRK	52	288	6
STR	53	0	0
SXR	53	0	0	96	192	5
TAP	53	0	1
TAP	53	96	2
TAP	53	192	3
TAP	53	288	4
STR	54	0	4
SXR	54	0	4	96	192	1
TAP	54	96	5
TAP	54	192	6
TAP	54	288	7
TAP	55	0	7
TAP	55	48	3
TAP	55	96	6
TAP	55	144	2
TAP	55	192	5
TAP	55	240	1
TAP	55	288	4
TAP	55	336	0
TAP	56	0	5
TAP	56	48	1
TAP	56	96	6
HLD	56	144	2	96
TAP	56	240	3
TAP	56	288	4
TAP	56	336	5
STR	57	0	6
SXR	57	0	6	96	192	3
TAP	57	96	0
TAP	57	192	1
TAP	57	288	2
STR	58	0	2
SXR	58	0	2	96	192	7
TAP	58	96	3
TAP	58	192	4
TAP	58	288	5
TAP	59	0	5
STR	59	48	5
SI_	59	48	5	96	48	0
STR	59	144	4
SI_	59	144	4	96	48	1
STR	59	240	5
SI_	59	240	5	96	48	7
STR	59	336	4
SI_	59	336	4	96	48	2
STR	60	48	5
SI_	60	48	5	96	48	0
TAP	60	144	4
TAP	60	192	4
TAP	60	288	1
TAP	60	288	6
TAP	61	0	5
TAP	61	48	5
TAP	61	96	4
TAP	61	144	4
TAP	61	192	3
TAP	61	240	3
TAP	61	288	2
TAP	61	336	2
TAP	62	0	3
TAP	62	48	3
TAP	62	96	4
TAP	62	144	4
TAP	62	192	5
TAP	62	240	5
TAP	62	288	4
TAP	62	336	4
TAP	63	0	3
TAP	63	48	2
TAP	63	96	1
TAP	63	144	0
TAP	63	192	7
TAP	63	240	6
TAP	63	288	5
TAP	63	336	3
TAP	63	336	4
TAP	64	24	3
TAP	64	48	4
TAP	64	72	3
TAP	64	96	4
TAP	64	120	3
TAP	64	144	4
TAP	64	168	3
TAP	64	192	4
TAP	64	216	3
TAP	64	240	4
TAP	64	264	3
TAP	64	336	1
TAP	64	336	6
HLD	65	0	0	96
TAP	65	48	7
TAP	65	96	6
HLD	65	144	5	96
TAP	65	192	1
TAP	65	240	2
HLD	65	288	3	96
TAP	65	336	4
TAP	66	0	5
HLD	66	48	6	96
TAP	66	96	2
TAP	66	144	1
HLD	66	192	0	96
TAP	66	240	7
TAP	66	288	6
TAP	66	336	5
TAP	67	0	0
TAP	67	24	1
TAP	67	48	2
TAP	67	72	3
TAP	67	96	4
TAP	67	120	5
TAP	67	144	6
TAP	67	168	7
TAP	67	192	0
TAP	67	216	1
TAP	67	240	2
TAP	67	264	3
TAP	67	288	4
TAP	67	312	5
TAP	67	336	6
TAP	67	360	7
TAP	68	0	0
TAP	68	24	1
TAP	68	48	2
TAP	68	72	3
TAP	68	96	4
TAP	68	120	5
TAP	68	144	6
TAP	68	168	7
TAP	68	192	0
TAP	68	192	4
TAP	68	288	2
TAP	68	288	3
BRK	69	0	0
TAP	69	0	6
TAP	70	0	1
BRK	70	0	7
BRK	71	0	0
TAP	71	0	5
TAP	72	0	2
BRK	72	0	7
BRK	72	192	0
TAP	72	192	4
TAP	73	0	4
BRK	73	0	6
BRK	74	0	1
TAP	74	0	3
TAP	75	0	3
BRK	75	0	7
TAP	76	48	4
TAP	76	48	5
TAP	76	96	4
TAP	76	96	5
TAP	76	144	4
TAP	76	144	5
TAP	76	192	3
TAP	76	192	6
TAP	76	240	3
TAP	76	240	6
TAP	76	288	2
TAP	76	288	7
TAP	76	336	2
TAP	76	336	7
STR	77	0	0
SI_	77	0	0	96	48	5
STR	77	0	1
SI_	77	0	1	96	48	4
BRK	77	96	0
BRK	77	96	1
STR	77	192	6
SI_	77	192	6	96	48	3
TAP	77	240	6
TAP	77	288	7
TAP	77	336	7
TAP	78	0	1
STR	78	48	1
SXR	78	48	1	96	144	4
TAP	78	96	7
HLD	78	144	7	144
STR	79	0	5
SCR	79	0	5	96	48	0
TAP	79	48	5
TAP	79	96	4
TAP	79	144	4
STR	79	192	2
SCL	79	192	2	96	48	7
TAP	79	240	2
TAP	79	288	3
TAP	79	336	3
TAP	80	0	5
STR	80	48	5
SXR	80	48	5	96	144	0
TAP	80	96	3
HLD	80	144	3	144
BST	81	0	3
SCL	81	0	3	96	96	7
BST	81	96	7
SCL	81	96	7	96	96	3
BST	81	192	3
SCL	81	192	3	96	96	7
BST	81	288	7
SCL	81	288	7	96	96	3
BST	82	0	3
SCL	82	0	3	96	96	7
BST	82	96	7
SCL	82	96	7	96	96	3
BST	82	192	3
SCL	82	192	3	96	96	7
BST	82	288	7
SCL	82	288	7	96	288	0
HLD	83	0	4	288
TAP	84	48	0
TAP	84	48	7
TAP	84	144	0
TAP	84	192	7
BRK	84	288	1
BRK	84	288	6
TAP	85	0	0
TAP	85	0	2
TAP	85	96	0
TAP	85	96	2
TAP	85	192	5
TAP	85	192	7
TAP	85	288	5
TAP	85	288	7
TAP	86	0	1
TAP	86	0	3
TAP	86	96	2
TAP	86	96	4
TAP	86	192	3
TAP	86	192	5
TAP	86	288	6
HLD	86	336	6	96
TAP	87	48	7
TAP	87	96	6
STR	87	144	5
SCR	87	144	5	96	48	0
TAP	87	192	4
TAP	87	240	3
HLD	87	336	1	96
TAP	88	48	0
TAP	88	96	1
TAP	88	144	0
STR	88	192	1
SCR	88	192	1	96	48	4
TAP	88	240	0
TAP	88	288	7
TAP	88	336	6
TAP	89	0	5
TAP	89	0	7
TAP	89	96	5
TAP	89	96	7
TAP	89	192	0
TAP	89	192	2
TAP	89	288	0
TAP	89	288	2
TAP	90	0	4
TAP	90	0	6
TAP	90	96	3
TAP	90	96	5
TAP	90	192	2
TAP	90	192	4
TAP	90	288	1
HLD	90	336	1	96
TAP	91	48	0
TAP	91	96	1
TAP	91	144	0
TAP	91	192	1
TAP	91	240	0
TAP	91	240	2
TAP	91	288	3
TAP	91	288	7
TAP	91	336	4
TAP	91	336	6
HLD	92	0	5	288
TAP	92	96	4
TAP	92	144	4
TAP	92	240	4
TAP	92	288	4
HLD	93	0	0	288
TAP	93	96	1
TAP	93	144	1
TAP	93	240	1
TAP	93	288	1
BST	94	0	2
SXR	94	0	2	96	672	4
BST	94	0	5
SXL	94	0	5	96	672	3

T_REC_TAP	395
T_REC_BRK	32
T_REC_XTP	0
T_REC_HLD	42
T_REC_XHO	0
T_REC_STR	72
T_REC_BST	10
T_REC_XST	0
T_REC_TTP	0
T_REC_THO	0
T_REC_SLD	82
T_REC_ALL	633
T_NUM_TAP	467
T_NUM_BRK	42
T_NUM_HLD	42
T_NUM_SLD	82
T_NUM_ALL	633
T_JUDGE_TAP	509
T_JUDGE_HLD	124
T_JUDGE_SLD	82
T_JUDGE_ALL	715
TTM_EACHPAIRS	92
TTM_SCR_TAP	233500
TTM_SCR_BRK	109200
TTM_SCR_HLD	42000
TTM_SCR_SLD	123000
TTM_SCR_ALL	507700
TTM_SCR_S	488400
TTM_SCR_SS	503500
TTM_RAT_ACV	10083

