VERSION	0.00.00	1.03.00
FES_MODE	0
BPM_DEF	190.000	190.000	190.000	190.000
MET_DEF	4	4
RESOLUTION	384
CLK_DEF	384
COMPATIBLE_CODE	MA2

BPM	0	0	190.000

TAP	2	0	2
TAP	2	96	3
TAP	2	192	4
TAP	2	288	6
TAP	2	288	7
TAP	3	0	5
TAP	3	96	4
TAP	3	192	3
TAP	3	288	0
TAP	3	288	1
TAP	4	0	2
TAP	4	0	3
TAP	4	96	1
TAP	4	96	3
TAP	4	192	4
TAP	4	192	5
TAP	4	288	4
TAP	4	288	6
TAP	5	0	3
TAP	5	0	4
TAP	5	96	2
TAP	5	96	5
BRK	5	192	1
BRK	5	192	6
TAP	6	0	5
TAP	6	96	4
TAP	6	192	3
TAP	6	288	1
TAP	6	288	7
TAP	7	0	2
TAP	7	96	3
TAP	7	192	4
TAP	7	288	0
TAP	7	288	6
TAP	8	0	4
TAP	8	0	5
TAP	8	96	4
TAP	8	96	6
TAP	8	192	2
TAP	8	192	3
TAP	8	288	1
TAP	8	288	3
TAP	9	0	0
TAP	9	96	0
TAP	9	288	7
TAP	10	96	0
TAP	10	240	7
TAP	10	288	7
HLD	11	0	2	192
HLD	11	192	3	192
HLD	12	0	4	192
TAP	12	192	5
TAP	12	288	3
TAP	12	288	6
HLD	13	0	5	192
HLD	13	192	4	192
HLD	14	0	3	192
TAP	14	192	2
TAP	14	288	1
TAP	14	288	4
HLD	15	0	0	192
HLD	15	192	7	192
TAP	16	0	6
TAP	16	96	5
TAP	16	192	4
TAP	16	288	3
HLD	17	0	1	96
HLD	17	0	3	96
HLD	17	192	4	96
HLD	17	192	6	96
TAP	18	48	3
TAP	18	48	4
TAP	18	96	3
TAP	18	96	4
BRK	18	192	1
BRK	18	192	6
HLD	19	0	5	288
TAP	19	0	7
TAP	19	96	4
TAP	19	192	7
TAP	19	288	4
HLD	20	0	6	288
TAP	20	0	7
TAP	20	96	5
TAP	20	192	4
TAP	20	288	3
TAP	21	0	2
TAP	21	0	3
TAP	21	96	1
TAP	21	96	3
TAP	21	192	4
TAP	21	192	5
TAP	21	288	4
TAP	21	288	6
TAP	22	0	3
TAP	22	0	4
TAP	22	96	2
TAP	22	96	5
TAP	22	192	1
TAP	22	192	6
HLD	23	0	1	288
TAP	23	0	7
TAP	23	96	2
TAP	23	192	7
TAP	23	288	2
HLD	24	0	0	288
TAP	24	0	7
TAP	24	96	1
TAP	24	192	2
TAP	24	288	3
HLD	25	0	6	96
TAP	25	96	5
HLD	25	192	1	96
TAP	25	288	2
STR	26	0	6
SI_	26	0	6	96	96	3
STR	26	0	7
SI_	26	0	7	96	96	2
BRK	26	288	1
STR	27	0	4
SCL	27	0	4	96	192	0
TAP	27	0	6
HLD	28	0	7	96
HLD	28	96	6	96
HLD	28	192	5	96
TAP	28	288	4
STR	29	0	2
SI_	29	0	2	96	96	7
TAP	29	0	3
TAP	30	0	4
STR	30	0	5
SI_	30	0	5	96	96	0
STR	31	0	0
SCL	31	0	0	96	192	4
TAP	31	0	2
HLD	32	0	3	96
HLD	32	96	2	96
HLD	32	192	1	96
TAP	32	288	0
HLD	33	0	0	96
HLD	33	0	2	96
HLD	33	192	5	96
HLD	33	192	7	96
TAP	34	0	0
TAP	34	0	7
TAP	34	96	1
TAP	34	96	6
BRK	34	192	2
BRK	34	192	5
HLD	35	0	1	96
HLD	35	0	3	96
HLD	35	192	4	96
HLD	35	192	6	96
TAP	36	0	3
TAP	36	0	4
TAP	36	96	2
TAP	36	96	5
BRK	36	192	1
BRK	36	192	6
TAP	37	0	6
TAP	37	48	6
TAP	37	96	7
TAP	37	192	0
TAP	37	192	1
TAP	37	288	4
TAP	37	288	5
STR	38	0	0
SUL	38	0	0	96	144	3
STR	38	0	7
SCL	38	0	7	96	144	4
TAP	39	0	1
TAP	39	48	1
TAP	39	96	0
TAP	39	192	2
TAP	39	192	3
TAP	39	288	6
TAP	39	288	7
STR	40	0	3
SCL	40	0	3	96	144	0
STR	40	0	4
SUL	40	0	4	96	144	7
HLD	41	0	1	144
HLD	41	144	2	144
TAP	41	288	3
HLD	42	0	6	144
HLD	42	144	5	144
TAP	42	288	4
HLD	43	0	3	288
TAP	43	96	2
TAP	43	192	1
TAP	43	288	0
TAP	44	0	0
TAP	44	0	3
TAP	44	96	4
TAP	44	96	7
BRK	44	192	1
BRK	44	192	6
TAP	45	0	2
TAP	45	48	2
TAP	45	96	3
TAP	45	192	0
TAP	45	192	1
TAP	45	288	4
TAP	45	288	5
STR	46	0	2
SCL	46	0	2	96	144	7
STR	46	0	3
SUL	46	0	3	96	144	6
TAP	47	0	5
TAP	47	48	5
TAP	47	96	4
TAP	47	192	6
TAP	47	192	7
TAP	47	288	2
TAP	47	288	3
STR	48	0	4
SUR	48	0	4	96	144	1
STR	48	0	5
SCR	48	0	5	96	144	0
HLD	49	0	2	144
HLD	49	144	3	144
TAP	49	288	4
HLD	50	0	7	144
HLD	50	144	6	144
TAP	50	288	5
TAP	51	0	3
TAP	51	0	4
TAP	51	96	2
TAP	51	96	5
TAP	51	192	1
TAP	51	192	6
TAP	51	288	0
TAP	51	288	7
TAP	52	48	0
TAP	52	144	7
TAP	52	192	7
TAP	53	0	4
TAP	53	96	4
TAP	53	96	5
TAP	53	192	4
TAP	53	192	6
TAP	53	288	4
TAP	53	288	7
TAP	54	0	0
TAP	54	0	4
TAP	54	96	4
TAP	54	96	7
TAP	54	192	4
TAP	54	192	6
TAP	54	288	4
TAP	54	288	5
TAP	55	0	3
TAP	55	96	2
TAP	55	96	3
TAP	55	192	1
TAP	55	192	3
TAP	55	288	0
TAP	55	288	3
TAP	56	0	3
TAP	56	0	7
TAP	56	96	0
TAP	56	96	3
TAP	56	192	1
TAP	56	192	3
TAP	57	0	4
TAP	57	96	4
TAP	57	96	5
TAP	57	192	4
TAP	57	192	6
TAP	57	288	4
TAP	57	288	7
TAP	58	0	3
TAP	58	96	2
TAP	58	96	3
TAP	58	192	1
TAP	58	192	3
TAP	58	288	0
TAP	58	288	3
TAP	59	0	1
TAP	59	48	1
TAP	59	96	0
TAP	59	192	6
TAP	59	240	6
TAP	59	288	7
TAP	60	0	0
TAP	60	0	7
TAP	60	96	1
TAP	60	96	6
BRK	60	192	2
BRK	60	192	5
STR	61	0	7
SI_	61	0	7	96	48	5
STR	61	192	1
SI_	61	192	1	96	48	3
STR	62	0	6
SI_	62	0	6	96	48	4
STR	62	192	0
SI_	62	192	0	96	48	2
HLD	63	0	3	96
HLD	63	96	4	96
HLD	63	192	5	96
HLD	63	288	6	96
TAP	64	0	7
TAP	64	96	0
BRK	64	192	1
BRK	64	192	6
TAP	65	0	7
TAP	65	96	6
TAP	65	96	7
TAP	65	192	5
TAP	65	192	7
TAP	65	288	4
TAP	65	288	7
TAP	66	0	0
TAP	66	96	0
TAP	66	96	1
TAP	66	192	0
TAP	66	192	2
TAP	66	288	0
TAP	66	288	3
STR	67	0	4
SCR	67	0	4	96	192	1
TAP	68	0	2
TAP	68	0	3
TAP	68	96	1
TAP	68	96	4
BRK	68	192	0
BRK	68	192	5
HLD	69	0	4	384
HLD	70	0	2	384
HLD	71	0	0	384
HLD	72	0	2	192
TAP	72	192	3
HLD	73	0	2	384
HLD	74	0	5	384
HLD	75	0	7	384
HLD	76	0	5	384
TAP	76	96	4
TAP	76	192	3
HLD	76	288	2	96
BRK	77	96	0
BRK	77	96	7
TAP	77	192	3
TAP	77	192	4
TAP	77	288	6
TAP	77	288	7
STR	78	0	5
SUR	78	0	5	96	168	3
STR	78	0	6
SCR	78	0	6	96	168	2
TAP	79	0	3
TAP	79	0	4
TAP	79	96	6
TAP	79	96	7
TAP	79	192	3
TAP	79	192	4
TAP	79	288	0
TAP	79	288	1
STR	80	0	1
SCL	80	0	1	96	192	5
STR	80	0	2
SUL	80	0	2	96	192	4
HLD	81	0	1	144
HLD	81	144	3	144
TAP	81	288	4
HLD	82	0	6	144
HLD	82	144	4	144
TAP	82	288	3
TAP	83	0	2
TAP	83	0	3
TAP	83	96	0
TAP	83	96	1
TAP	83	192	6
TAP	83	192	7
TAP	83	288	4
TAP	83	288	5
BRK	84	48	7
BRK	84	144	0
BRK	84	192	0
TAP	85	0	1
TAP	85	96	2
TAP	85	192	3
TAP	85	288	4
TAP	85	288	6
TAP	86	0	7
TAP	86	96	0
TAP	86	192	1
TAP	86	288	2
TAP	86	288	4
TAP	87	0	1
TAP	87	0	3
TAP	87	96	1
TAP	87	96	3
TAP	87	192	4
TAP	87	192	6
TAP	87	288	4
TAP	87	288	6
TAP	88	0	3
TAP	88	0	4
TAP	88	96	2
TAP	88	96	5
BRK	88	192	1
BRK	88	192	6
TAP	89	0	2
TAP	89	96	3
TAP	89	192	4
BRK	89	288	6
BRK	89	288	7
TAP	90	0	5
TAP	90	96	4
TAP	90	192	3
BRK	90	288	0
BRK	90	288	1
TAP	91	0	1
TAP	91	0	2
TAP	91	96	1
TAP	91	96	2
TAP	91	192	5
TAP	91	192	6
TAP	91	288	5
TAP	91	288	6
HLD	92	0	7	672
HLD	93	0	0	288
BRK	94	0	1
BRK	94	0	6

T_REC_TAP	289
T_REC_BRK	30
T_REC_XTP	0
T_REC_HLD	60
T_REC_XHO	0
T_REC_STR	23
T_REC_BST	0
T_REC_XST	0
T_REC_TTP	0
T_REC_THO	0
T_REC_SLD	23
T_REC_ALL	425
T_NUM_TAP	312
T_NUM_BRK	30
T_NUM_HLD	60
T_NUM_SLD	23
T_NUM_ALL	425
T_JUDGE_TAP	342
T_JUDGE_HLD	228
T_JUDGE_SLD	23
T_JUDGE_ALL	593
TTM_EACHPAIRS	128
TTM_SCR_TAP	156000
TTM_SCR_BRK	78000
TTM_SCR_HLD	60000
TTM_SCR_SLD	34500
TTM_SCR_ALL	328500
TTM_SCR_S	315750
TTM_SCR_SS	325500
TTM_RAT_ACV	10092

