VERSION	0.00.00	1.03.00
FES_MODE	0
BPM_DEF	190.000	190.000	190.000	190.000
MET_DEF	4	4
RESOLUTION	384
CLK_DEF	384
COMPATIBLE_CODE	MA2

BPM	0	0	190.000

TAP	2	0	3
TAP	2	96	2
TAP	2	192	3
TAP	2	288	2
TAP	3	0	4
TAP	3	96	5
TAP	3	192	4
TAP	3	288	5
TAP	4	0	3
TAP	4	96	2
TAP	4	192	3
TAP	4	288	2
TAP	5	0	4
TAP	5	96	5
TAP	5	192	4
TAP	5	192	5
TAP	6	0	7
TAP	6	96	6
TAP	6	192	7
TAP	6	288	6
TAP	7	0	0
TAP	7	96	1
TAP	7	192	0
TAP	7	288	1
TAP	8	0	7
TAP	8	96	6
TAP	8	192	7
TAP	8	288	6
HLD	9	0	6	192
HLD	9	192	7	192
HLD	10	0	0	192
TAP	10	192	1
HLD	11	0	2	192
TAP	11	192	3
STR	12	0	5
SCL	12	0	5	96	96	3
HLD	13	0	2	192
TAP	13	192	3
STR	14	0	2
SCR	14	0	2	96	96	4
HLD	15	0	5	192
TAP	15	192	4
STR	16	0	5
SCL	16	0	5	96	96	3
HLD	17	0	2	192
TAP	17	192	3
BRK	18	0	3
BRK	18	0	4
BRK	18	192	2
BRK	18	192	5
HLD	19	0	6	192
TAP	19	96	7
TAP	19	192	7
HLD	20	0	1	192
TAP	20	96	0
TAP	20	192	0
TAP	21	0	6
TAP	21	96	6
TAP	21	192	7
TAP	21	288	7
HLD	22	0	1	192
TAP	22	192	0
HLD	23	0	5	192
TAP	23	96	4
TAP	23	192	4
HLD	24	0	2	192
TAP	24	96	3
TAP	24	192	3
HLD	25	0	5	96
TAP	25	96	4
HLD	25	192	2	96
TAP	25	288	3
STR	26	0	3
SI_	26	0	3	96	192	0
STR	26	0	4
SI_	26	0	4	96	192	7
TAP	27	0	1
TAP	27	96	2
TAP	27	192	3
TAP	27	192	4
TAP	28	0	5
TAP	28	96	6
TAP	28	192	0
TAP	28	192	7
TAP	29	0	6
TAP	29	96	7
TAP	29	192	1
TAP	29	288	0
HLD	30	0	0	96
HLD	30	0	7	96
TAP	30	192	1
TAP	30	192	6
TAP	31	0	3
TAP	31	96	2
TAP	31	192	0
TAP	31	192	1
TAP	32	0	7
TAP	32	96	6
TAP	32	192	4
TAP	32	192	5
HLD	33	0	4	96
HLD	33	0	5	96
HLD	33	192	2	96
HLD	33	192	3	96
TAP	34	0	3
TAP	34	0	4
TAP	34	96	3
TAP	34	96	4
HLD	34	192	2	96
HLD	34	192	5	96
HLD	35	0	6	96
HLD	35	0	7	96
HLD	35	192	0	96
HLD	35	192	1	96
TAP	36	0	0
TAP	36	0	7
TAP	36	96	0
TAP	36	96	7
BRK	36	192	1
BRK	36	192	6
TAP	37	0	6
TAP	37	96	7
TAP	37	192	6
TAP	37	192	7
TAP	37	288	6
TAP	37	288	7
TAP	38	0	0
TAP	38	0	1
TAP	38	96	0
TAP	38	96	1
HLD	38	192	2	96
HLD	38	192	7	96
TAP	39	0	1
TAP	39	96	0
TAP	39	192	0
TAP	39	192	1
TAP	39	288	0
TAP	39	288	1
TAP	40	0	6
TAP	40	0	7
TAP	40	96	6
TAP	40	96	7
BRK	40	192	0
BRK	40	192	5
STR	41	0	0
SI_	41	0	0	96	192	5
STR	41	0	1
SI_	41	0	1	96	192	4
STR	42	0	6
SI_	42	0	6	96	192	3
STR	42	0	7
SI_	42	0	7	96	192	2
TAP	43	0	2
TAP	43	96	3
TAP	43	192	4
TAP	43	288	5
TAP	44	0	3
TAP	44	0	4
TAP	44	96	2
TAP	44	96	5
BRK	44	192	1
BRK	44	192	6
TAP	45	0	2
TAP	45	96	3
TAP	45	192	2
TAP	45	192	3
TAP	45	288	2
TAP	45	288	3
TAP	46	0	4
TAP	46	0	5
TAP	46	96	4
TAP	46	96	5
HLD	46	192	3	96
HLD	46	192	6	96
TAP	47	0	5
TAP	47	96	4
TAP	47	192	4
TAP	47	192	5
TAP	47	288	4
TAP	47	288	5
TAP	48	0	2
TAP	48	0	3
TAP	48	96	2
TAP	48	96	3
BRK	48	192	1
BRK	48	192	4
STR	49	0	4
SI_	49	0	4	96	192	1
STR	49	0	5
SI_	49	0	5	96	192	0
STR	50	0	2
SI_	50	0	2	96	192	7
STR	50	0	3
SI_	50	0	3	96	192	6
TAP	51	0	6
TAP	51	96	7
TAP	51	192	0
TAP	51	288	1
HLD	52	0	0	96
HLD	52	0	7	96
BRK	52	192	1
BRK	52	192	6
TAP	53	0	2
TAP	53	96	2
TAP	53	192	3
TAP	53	288	3
TAP	54	0	4
TAP	54	96	4
TAP	54	192	5
TAP	55	0	6
TAP	55	96	6
TAP	55	192	7
TAP	55	288	7
TAP	56	0	0
TAP	56	96	0
TAP	56	192	1
TAP	57	0	1
TAP	57	96	1
TAP	57	192	0
TAP	57	288	0
TAP	58	0	7
TAP	58	96	7
TAP	58	192	6
TAP	58	288	6
HLD	59	0	6	96
HLD	59	0	7	96
HLD	59	192	0	96
HLD	59	192	1	96
TAP	60	0	0
TAP	60	0	7
TAP	60	96	0
TAP	60	96	7
BRK	60	192	1
BRK	60	192	6
HLD	61	0	5	192
HLD	61	192	4	192
HLD	62	0	3	192
TAP	62	192	2
HLD	63	0	1	192
HLD	63	192	0	192
HLD	64	0	7	192
TAP	64	192	6
HLD	65	0	5	192
TAP	65	96	4
TAP	65	192	4
HLD	66	0	2	192
TAP	66	96	3
TAP	66	192	3
HLD	67	0	1	192
TAP	67	96	0
TAP	67	192	0
HLD	68	0	6	192
TAP	68	96	7
TAP	68	192	7
HLD	69	0	5	384
HLD	70	0	4	384
HLD	71	0	3	384
HLD	72	0	2	192
TAP	72	192	3
HLD	73	0	1	384
HLD	74	0	0	384
HLD	75	0	7	384
HLD	76	0	6	192
TAP	76	192	7
TAP	77	0	5
TAP	77	96	4
TAP	77	192	2
TAP	77	192	3
TAP	77	288	1
TAP	77	288	4
TAP	78	0	4
TAP	78	0	5
TAP	78	96	4
TAP	78	96	5
HLD	78	192	3	96
HLD	78	192	6	96
TAP	79	0	2
TAP	79	96	3
TAP	79	192	4
TAP	79	192	5
TAP	79	288	3
TAP	79	288	6
TAP	80	0	2
TAP	80	0	3
TAP	80	96	2
TAP	80	96	3
BRK	80	192	1
BRK	80	192	4
STR	81	0	4
SI_	81	0	4	96	192	1
STR	81	0	5
SI_	81	0	5	96	192	0
STR	82	0	2
SI_	82	0	2	96	192	7
STR	82	0	3
SI_	82	0	3	96	192	6
TAP	83	0	1
TAP	83	96	0
TAP	83	192	7
TAP	83	288	6
TAP	84	0	0
TAP	84	0	7
TAP	84	96	1
TAP	84	96	6
BRK	84	192	2
BRK	84	192	5
TAP	85	0	3
TAP	85	96	2
TAP	85	192	3
TAP	85	288	2
TAP	86	0	4
TAP	86	96	5
TAP	86	192	4
TAP	86	288	5
TAP	87	0	3
TAP	87	96	2
TAP	87	192	3
TAP	87	288	2
TAP	88	0	4
TAP	88	96	5
TAP	88	192	4
TAP	88	192	5
TAP	89	0	7
TAP	89	96	6
TAP	89	192	7
TAP	89	288	6
TAP	90	0	0
TAP	90	96	1
TAP	90	192	0
TAP	90	288	1
TAP	91	0	7
TAP	91	96	6
TAP	91	192	7
TAP	91	288	6
STR	92	0	5
SCR	92	0	5	96	192	0
STR	93	0	1
SCR	93	0	1	96	192	4
BRK	94	0	5

T_REC_TAP	224
T_REC_BRK	21
T_REC_XTP	0
T_REC_HLD	56
T_REC_XHO	0
T_REC_STR	19
T_REC_BST	0
T_REC_XST	0
T_REC_TTP	0
T_REC_THO	0
T_REC_SLD	19
T_REC_ALL	339
T_NUM_TAP	243
T_NUM_BRK	21
T_NUM_HLD	56
T_NUM_SLD	19
T_NUM_ALL	339
T_JUDGE_TAP	264
T_JUDGE_HLD	196
T_JUDGE_SLD	19
T_JUDGE_ALL	479
TTM_EACHPAIRS	70
TTM_SCR_TAP	121500
TTM_SCR_BRK	54600
TTM_SCR_HLD	56000
TTM_SCR_SLD	28500
TTM_SCR_ALL	260600
TTM_SCR_S	250750
TTM_SCR_SS	258500
TTM_RAT_ACV	10081

