VERSION	0.00.00	1.03.00
FES_MODE	0
BPM_DEF	190.000	190.000	190.000	190.000
MET_DEF	4	4
RESOLUTION	384
CLK_DEF	384
COMPATIBLE_CODE	MA2

BPM	0	0	190.000

TAP	2	0	0
TAP	2	192	0
TAP	3	0	1
HLD	4	0	2	192
HLD	5	0	3	192
TAP	6	0	4
TAP	6	192	4
TAP	7	0	5
HLD	8	0	6	192
BRK	9	0	7
TAP	11	0	7
TAP	11	192	7
TAP	12	0	6
TAP	12	192	6
TAP	13	0	5
TAP	13	192	5
HLD	14	0	3	192
HLD	14	0	4	192
TAP	15	0	3
TAP	15	0	4
TAP	15	192	3
TAP	15	192	4
TAP	16	0	3
TAP	16	96	3
TAP	16	192	3
TAP	17	0	4
TAP	17	96	4
TAP	17	192	4
TAP	18	0	3
TAP	18	96	4
TAP	18	192	3
TAP	19	0	3
TAP	19	192	3
TAP	20	0	2
TAP	20	192	2
TAP	21	0	1
TAP	21	192	1
HLD	22	0	0	192
HLD	22	0	7	192
TAP	23	0	0
TAP	23	0	7
TAP	23	192	0
TAP	23	192	7
TAP	24	0	0
TAP	24	96	0
TAP	24	192	0
TAP	25	0	7
TAP	25	96	7
TAP	25	192	7
TAP	26	0	0
TAP	26	96	7
TAP	26	192	0
STR	27	0	0
SI_	27	0	0	96	288	3
HLD	29	0	0	384
HLD	29	0	7	384
STR	31	0	7
SI_	31	0	7	96	288	4
HLD	33	0	0	384
HLD	33	0	7	384
TAP	35	0	0
TAP	35	0	7
TAP	35	192	0
TAP	35	192	7
TAP	36	0	0
TAP	36	0	7
TAP	36	96	0
TAP	36	96	7
BRK	36	192	0
BRK	36	192	7
TAP	37	0	0
TAP	37	96	0
TAP	37	192	0
TAP	38	0	1
TAP	38	96	1
TAP	38	192	1
TAP	39	0	2
TAP	39	96	2
TAP	39	192	2
TAP	40	0	3
TAP	40	96	3
TAP	40	192	3
HLD	41	0	4	192
HLD	42	0	3	192
HLD	43	0	3	384
HLD	43	0	4	384
TAP	45	0	4
TAP	45	96	4
TAP	45	192	4
TAP	46	0	5
TAP	46	96	5
TAP	46	192	5
TAP	47	0	6
TAP	47	96	6
TAP	47	192	6
TAP	48	0	7
TAP	48	96	7
TAP	48	192	7
HLD	49	0	0	192
HLD	50	0	7	192
HLD	51	0	0	192
HLD	51	0	7	192
TAP	52	0	0
TAP	52	96	7
BRK	52	192	0
TAP	53	0	7
TAP	53	96	7
TAP	53	192	7
TAP	54	0	6
TAP	54	96	6
TAP	54	192	6
TAP	55	0	4
TAP	55	0	5
TAP	55	192	4
TAP	55	192	5
TAP	56	0	2
TAP	56	0	3
TAP	56	192	2
TAP	56	192	3
TAP	57	0	4
TAP	57	96	4
TAP	57	192	4
TAP	58	0	3
TAP	58	96	3
TAP	58	192	3
TAP	59	0	2
TAP	59	0	3
TAP	59	192	2
TAP	59	192	3
TAP	60	0	4
TAP	60	0	5
TAP	60	192	4
TAP	60	192	5
TAP	61	0	3
TAP	61	96	3
TAP	61	192	3
TAP	62	0	2
TAP	62	96	2
TAP	62	192	2
TAP	63	0	1
TAP	63	96	1
TAP	63	192	1
HLD	64	0	0	192
TAP	65	0	7
TAP	65	192	7
TAP	66	0	0
TAP	66	192	0
TAP	67	0	7
TAP	67	96	7
TAP	67	192	7
TAP	68	0	0
TAP	68	96	0
TAP	68	192	0
TAP	69	0	0
TAP	69	0	7
TAP	70	0	0
TAP	70	0	7
TAP	71	0	0
TAP	71	0	7
TAP	72	0	0
TAP	72	0	7
HLD	73	0	0	192
HLD	74	0	7	192
STR	75	0	0
SI_	75	0	0	96	288	3
STR	75	0	7
SI_	75	0	7	96	288	4
BRK	77	0	4
TAP	77	96	4
TAP	77	192	4
TAP	78	0	5
TAP	78	96	5
TAP	78	192	5
TAP	79	0	6
TAP	79	96	6
TAP	79	192	6
TAP	80	0	7
TAP	80	96	0
TAP	80	192	7
HLD	81	0	0	192
HLD	82	0	7	192
HLD	83	0	0	192
HLD	83	0	7	192
TAP	84	0	0
TAP	84	0	7
TAP	84	96	0
TAP	84	96	7
BRK	84	192	1
BRK	84	192	6
TAP	85	0	2
TAP	85	96	2
TAP	85	192	2
TAP	86	0	3
TAP	86	96	3
TAP	86	192	3
TAP	87	0	4
TAP	87	96	4
TAP	87	192	3
TAP	87	192	4
TAP	88	0	3
TAP	88	96	3
TAP	88	192	3
TAP	88	192	4
TAP	89	0	4
TAP	89	96	4
TAP	89	192	4
TAP	90	0	5
TAP	90	96	5
TAP	90	192	5
TAP	91	0	6
TAP	91	96	6
TAP	91	192	6
HLD	92	0	7	192
HLD	93	0	0	192
BRK	94	0	0
BRK	94	0	7

T_REC_TAP	171
T_REC_BRK	9
T_REC_XTP	0
T_REC_HLD	28
T_REC_XHO	0
T_REC_STR	4
T_REC_BST	0
T_REC_XST	0
T_REC_TTP	0
T_REC_THO	0
T_REC_SLD	4
T_REC_ALL	216
T_NUM_TAP	175
T_NUM_BRK	9
T_NUM_HLD	28
T_NUM_SLD	4
T_NUM_ALL	216
T_JUDGE_TAP	184
T_JUDGE_HLD	136
T_JUDGE_SLD	4
T_JUDGE_ALL	324
TTM_EACHPAIRS	35
TTM_SCR_TAP	87500
TTM_SCR_BRK	23400
TTM_SCR_HLD	28000
TTM_SCR_SLD	6000
TTM_SCR_ALL	144900
TTM_SCR_S	139700
TTM_SCR_SS	144000
TTM_RAT_ACV	10062

