VERSION	0.00.00	1.03.00
FES_MODE	0
BPM_DEF	135.000	135.000	135.000	135.000
MET_DEF	4	4
RESOLUTION	384
CLK_DEF	384
COMPATIBLE_CODE	MA2

BPM	0	0	135.000

HLD	1	0	4	2880
TAP	5	96	3
TAP	5	288	3
TAP	6	96	3
TAP	6	288	3
TAP	7	96	3
TAP	7	288	3
TAP	8	0	3
TAP	8	48	2
TAP	8	96	1
TAP	8	144	0
STR	8	192	7
SI_	8	192	7	96	48	4
TAP	8	240	0
TAP	8	288	7
HLD	9	0	2	48
TAP	9	48	4
TAP	9	80	3
HLD	9	96	5	48
TAP	9	144	3
TAP	9	176	4
HLD	9	192	2	48
TAP	9	240	4
TAP	9	272	3
HLD	9	288	6	48
TAP	9	336	3
TAP	9	368	4
HLD	10	0	2	48
TAP	10	48	4
TAP	10	80	3
HLD	10	96	5	48
TAP	10	144	3
TAP	10	176	4
HLD	10	192	1	48
TAP	10	240	4
TAP	10	288	2
TAP	10	288	3
TAP	10	336	3
TAP	10	336	4
HLD	11	0	5	48
TAP	11	48	3
TAP	11	80	4
HLD	11	96	2	48
TAP	11	144	4
TAP	11	176	3
HLD	11	192	5	48
TAP	11	240	3
TAP	11	272	4
HLD	11	288	1	48
TAP	11	336	4
TAP	11	368	3
HLD	12	0	5	48
TAP	12	48	3
TAP	12	80	4
HLD	12	96	2	48
TAP	12	144	4
TAP	12	176	3
HLD	12	192	6	48
TAP	12	240	3
TAP	12	288	4
TAP	12	288	5
TAP	12	336	3
TAP	12	336	4
HLD	13	0	2	48
TAP	13	48	4
TAP	13	80	3
HLD	13	96	6	48
TAP	13	144	4
TAP	13	176	5
HLD	13	192	2	48
TAP	13	240	4
TAP	13	272	3
HLD	13	288	6	48
TAP	13	336	4
TAP	13	368	5
HLD	14	0	1	48
TAP	14	48	3
TAP	14	80	2
HLD	14	96	6	48
TAP	14	144	4
TAP	14	176	5
HLD	14	192	2	48
TAP	14	240	4
TAP	14	288	2
TAP	14	288	3
TAP	14	336	3
TAP	14	336	4
HLD	15	0	5	48
TAP	15	48	3
TAP	15	80	4
HLD	15	96	1	48
TAP	15	144	3
TAP	15	176	2
HLD	15	192	5	48
TAP	15	240	3
TAP	15	272	4
HLD	15	288	1	48
TAP	15	336	3
TAP	15	368	2
HLD	16	0	6	48
TAP	16	48	4
TAP	16	80	5
HLD	16	96	1	48
TAP	16	144	3
TAP	16	176	2
HLD	16	192	6	48
TAP	16	240	4
TAP	16	288	2
TAP	16	288	5
TAP	16	336	3
TAP	16	336	4
HLD	17	0	1	384
HLD	17	0	5	432
HLD	18	96	2	96
HLD	18	144	6	96
HLD	18	288	1	48
TAP	18	336	5
TAP	19	0	1
TAP	19	0	5
TAP	19	48	3
TAP	19	96	2
TAP	19	96	6
TAP	19	144	4
TAP	19	192	1
TAP	19	192	5
TAP	19	240	3
TAP	19	288	2
TAP	19	288	6
TAP	19	336	4
TAP	20	0	1
TAP	20	0	5
TAP	20	48	2
TAP	20	48	6
TAP	20	96	3
TAP	20	96	7
STR	20	144	7
SCL	20	144	7	96	48	4
STR	20	192	4
SCL	20	192	4	96	48	1
TAP	21	0	1
TAP	21	0	5
TAP	21	48	2
TAP	21	96	0
TAP	21	96	4
TAP	21	144	2
TAP	21	192	1
TAP	21	192	5
TAP	21	240	2
TAP	21	288	0
TAP	21	288	4
TAP	21	336	3
TAP	22	0	1
TAP	22	0	5
TAP	22	48	2
TAP	22	96	0
TAP	22	96	4
TAP	22	144	2
TAP	22	192	1
TAP	22	192	5
TAP	22	240	2
TAP	22	288	0
TAP	22	288	4
TAP	22	336	3
TAP	23	0	2
TAP	23	0	6
TAP	23	48	4
TAP	23	96	1
TAP	23	96	5
TAP	23	144	3
TAP	23	192	2
TAP	23	192	6
TAP	23	240	4
TAP	23	288	1
TAP	23	288	5
TAP	23	336	3
TAP	24	0	2
TAP	24	0	6
TAP	24	48	1
TAP	24	48	5
TAP	24	96	0
TAP	24	96	4
STR	24	144	0
SCR	24	144	0	96	48	3
STR	24	192	3
SCR	24	192	3	96	48	6
TAP	25	0	2
TAP	25	0	6
TAP	25	48	5
TAP	25	96	3
TAP	25	96	7
TAP	25	144	5
TAP	25	192	2
TAP	25	192	6
TAP	25	240	5
TAP	25	288	3
TAP	25	288	7
TAP	25	336	4
TAP	26	0	2
TAP	26	0	6
TAP	26	48	5
TAP	26	96	3
TAP	26	96	7
TAP	26	144	5
TAP	26	192	2
TAP	26	192	6
TAP	26	240	5
TAP	26	288	3
TAP	26	288	7
STR	26	336	4
SI_	26	336	4	96	48	6
TAP	27	0	1
STR	27	48	3
SI_	27	48	3	96	48	1
TAP	27	48	4
TAP	27	144	3
STR	27	144	4
SI_	27	144	4	96	48	7
STR	27	240	3
SI_	27	240	3	96	48	0
TAP	27	240	4
TAP	27	336	3
STR	27	336	4
SCR	27	336	4	96	48	7
STR	28	48	3
SCL	28	48	3	96	48	0
TAP	28	48	4
TAP	28	144	3
STR	28	144	4
SI_	28	144	4	96	48	0
TAP	28	240	3
TAP	28	240	4
TAP	28	336	3
TAP	29	0	1
TAP	29	0	5
TAP	29	48	2
TAP	29	96	0
TAP	29	96	4
TAP	29	144	2
TAP	29	192	1
TAP	29	192	5
TAP	29	240	2
TAP	29	288	0
TAP	29	288	4
TAP	29	336	3
TAP	30	0	1
TAP	30	0	5
TAP	30	48	2
TAP	30	96	0
TAP	30	96	4
TAP	30	144	2
TAP	30	192	1
TAP	30	192	5
TAP	30	240	2
TAP	30	288	0
TAP	30	288	4
STR	30	336	3
SI_	30	336	3	96	48	1
TAP	31	0	6
TAP	31	48	3
STR	31	48	4
SI_	31	48	4	96	48	6
STR	31	144	3
SI_	31	144	3	96	48	0
TAP	31	144	4
TAP	31	240	3
STR	31	240	4
SI_	31	240	4	96	48	7
TAP	31	336	3
TAP	31	336	4
TAP	32	48	2
TAP	32	48	4
TAP	32	144	0
TAP	32	144	7
TAP	32	192	1
TAP	32	192	6
TAP	32	240	2
TAP	32	240	5
TAP	32	288	3
TAP	32	288	4
TAP	33	0	5
TAP	33	48	4
TAP	33	48	6
TAP	33	96	2
STR	33	144	1
SCL	33	144	1	96	48	6
TAP	33	144	3
TAP	33	192	4
TAP	33	240	5
TAP	33	288	4
TAP	33	336	3
TAP	34	0	2
TAP	34	48	1
TAP	34	48	3
TAP	34	96	5
TAP	34	144	4
TAP	34	144	6
TAP	34	192	2
TAP	34	192	5
TAP	34	240	2
STR	34	240	5
SCR	34	240	5	96	96	2
TAP	34	336	3
TAP	35	96	0
STR	35	144	0
SCR	35	144	0	96	48	3
STR	35	240	6
SCR	35	240	6	96	48	1
STR	35	336	2
SCR	35	336	2	96	48	5
STR	36	48	7
SCR	36	48	7	96	48	2
TAP	36	144	4
TAP	36	240	3
TAP	36	240	4
TAP	36	288	1
TAP	36	288	6
TAP	37	0	2
TAP	37	48	1
TAP	37	48	3
TAP	37	96	5
TAP	37	144	4
STR	37	144	6
SCR	37	144	6	96	48	1
TAP	37	192	3
TAP	37	240	2
TAP	37	288	3
TAP	37	336	4
TAP	38	0	5
TAP	38	48	4
TAP	38	48	6
TAP	38	96	2
TAP	38	144	1
TAP	38	144	3
TAP	38	192	2
TAP	38	192	5
TAP	38	240	2
TAP	38	240	5
TAP	38	288	4
STR	38	336	0
SI_	38	336	0	96	48	3
STR	39	0	7
SI_	39	0	7	96	48	4
TAP	39	48	0
TAP	39	96	7
STR	39	144	3
SI_	39	144	3	96	48	1
STR	39	192	4
SI_	39	192	4	96	48	6
TAP	39	240	3
STR	39	288	4
SXL	39	288	4	96	144	1
TAP	39	336	1
TAP	40	0	1
BRK	40	144	0
TAP	40	240	0
TAP	40	240	7
STR	40	288	1
SI_	40	288	1	96	48	3
TAP	40	288	6
TAP	40	336	4
TAP	41	0	1
STR	41	0	6
SI_	41	0	6	96	48	2
TAP	41	48	5
STR	41	96	1
SI_	41	96	1	96	48	5
TAP	41	96	6
TAP	41	144	0
TAP	41	192	1
STR	41	192	6
SI_	41	192	6	96	48	4
TAP	41	240	7
STR	41	288	1
SI_	41	288	1	96	48	5
TAP	41	288	6
TAP	41	336	3
TAP	42	0	1
TAP	42	0	6
TAP	42	48	0
TAP	42	96	2
TAP	42	144	3
TAP	42	144	4
TAP	42	192	2
TAP	42	192	5
TAP	42	240	0
TAP	42	240	7
TAP	42	288	1
STR	42	288	6
SI_	42	288	6	96	48	4
TAP	42	336	3
STR	43	0	1
SI_	43	0	1	96	48	5
TAP	43	0	6
TAP	43	48	2
TAP	43	96	1
STR	43	96	6
SI_	43	96	6	96	48	2
TAP	43	144	7
STR	43	192	1
SI_	43	192	1	96	48	3
TAP	43	192	6
TAP	43	240	0
TAP	43	288	1
STR	43	288	6
SI_	43	288	6	96	48	2
TAP	43	336	4
TAP	44	0	1
TAP	44	0	6
TAP	44	48	7
TAP	44	96	5
TAP	44	144	3
TAP	44	144	4
TAP	44	192	2
TAP	44	192	5
TAP	44	240	0
TAP	44	240	7
STR	44	288	1
SI_	44	288	1	96	48	3
TAP	44	288	6
TAP	44	336	4
TAP	45	0	1
STR	45	0	6
SI_	45	0	6	96	48	2
TAP	45	48	5
STR	45	96	1
SI_	45	96	1	96	48	5
TAP	45	96	6
TAP	45	144	0
TAP	45	192	1
STR	45	192	6
SI_	45	192	6	96	48	4
TAP	45	240	7
TAP	45	288	1
TAP	45	288	6
TAP	45	336	3
TAP	46	0	1
TAP	46	0	6
STR	46	48	2
SCL	46	48	2	96	48	7
TAP	46	96	5
TAP	46	144	4
TAP	46	240	0
TAP	46	288	0
TAP	46	336	0
TAP	46	336	1
TAP	47	0	2
TAP	47	0	7
STR	47	48	3
SCR	47	48	3	96	96	1
TAP	47	48	6
TAP	47	144	7
TAP	47	240	4
TAP	47	288	4
TAP	47	336	2
TAP	47	336	5
STR	48	0	7
SI_	48	0	7	96	48	4
STR	48	48	3
SI_	48	48	3	96	48	0
TAP	48	96	7
TAP	48	144	3
TAP	48	192	4
TAP	48	240	2
TAP	48	240	6
BRK	48	288	1
BRK	48	288	5
STR	49	0	7
SI_	49	0	7	96	144	4
STR	49	192	0
SI_	49	192	0	96	144	3
STR	50	0	7
SI_	50	0	7	96	144	4
STR	50	192	0
SI_	50	192	0	96	144	3
STR	51	0	7
SI_	51	0	7	96	144	4
STR	51	192	0
SI_	51	192	0	96	144	3
STR	52	0	7
SI_	52	0	7	96	144	4
TAP	52	192	0
STR	53	0	0
SI_	53	0	0	96	144	3
TAP	53	96	3
STR	53	192	7
SI_	53	192	7	96	144	4
TAP	53	288	4
STR	54	0	0
SI_	54	0	0	96	144	3
TAP	54	96	3
STR	54	192	7
SI_	54	192	7	96	144	4
TAP	54	288	4
STR	55	0	0
SI_	55	0	0	96	144	3
TAP	55	96	3
STR	55	192	7
SI_	55	192	7	96	144	4
TAP	55	288	4
HLD	56	0	0	288
STR	56	288	6
SI_	56	288	6	96	48	4
TAP	56	336	3
STR	57	0	1
SI_	57	0	1	96	48	5
TAP	57	0	6
TAP	57	48	2
TAP	57	96	1
STR	57	96	6
SI_	57	96	6	96	48	2
TAP	57	144	7
STR	57	192	1
SI_	57	192	1	96	48	7
TAP	57	192	6
TAP	57	240	0
TAP	57	288	1
STR	57	288	5
SI_	57	288	5	96	48	3
TAP	57	336	6
TAP	58	0	1
TAP	58	0	5
TAP	58	48	7
TAP	58	96	5
TAP	58	144	3
TAP	58	144	4
TAP	58	192	2
TAP	58	192	5
TAP	58	240	0
TAP	58	240	7
STR	58	288	1
SI_	58	288	1	96	48	3
TAP	58	288	6
TAP	58	336	4
TAP	59	0	1
STR	59	0	6
SI_	59	0	6	96	48	2
TAP	59	48	5
STR	59	96	1
SI_	59	96	1	96	48	5
TAP	59	96	6
TAP	59	144	0
TAP	59	192	1
STR	59	192	6
SI_	59	192	6	96	48	0
TAP	59	240	7
STR	59	288	2
SI_	59	288	2	96	48	4
TAP	59	288	6
TAP	59	336	1
TAP	60	0	2
TAP	60	0	6
TAP	60	48	7
TAP	60	96	2
TAP	60	144	3
TAP	60	144	4
TAP	60	192	2
TAP	60	192	5
TAP	60	240	0
TAP	60	240	7
TAP	60	288	1
STR	60	288	6
SI_	60	288	6	96	48	4
TAP	60	336	3
STR	61	0	1
SI_	61	0	1	96	48	5
TAP	61	0	6
TAP	61	48	2
TAP	61	96	1
STR	61	96	6
SI_	61	96	6	96	48	2
TAP	61	144	7
STR	61	192	1
SI_	61	192	1	96	48	3
TAP	61	192	6
TAP	61	240	0
TAP	61	288	1
TAP	61	288	6
TAP	61	336	4
TAP	62	0	1
TAP	62	0	6
STR	62	48	5
SCR	62	48	5	96	48	0
TAP	62	96	2
TAP	62	144	3
TAP	62	240	7
TAP	62	288	7
TAP	62	336	6
TAP	62	336	7
TAP	63	0	0
TAP	63	0	5
TAP	63	48	1
STR	63	48	4
SCL	63	48	4	96	96	6
TAP	63	144	0
STR	63	240	3
SCR	63	240	3	96	96	1
TAP	63	288	2
TAP	63	336	1
TAP	64	144	4
TAP	64	192	4
TAP	64	240	3
TAP	64	288	2
TAP	64	288	5
STR	65	0	1
SI_	65	0	1	96	48	4
STR	65	0	6
SI_	65	0	6	96	48	3
TAP	65	48	2
TAP	65	48	5
BST	65	96	1
SI_	65	96	1	96	48	7
BRK	65	96	6
TAP	65	192	1
STR	65	192	5
SI_	65	192	5	96	48	1
TAP	65	240	6
STR	65	288	3
SI_	65	288	3	96	48	0
TAP	65	288	5
TAP	65	336	2
TAP	66	0	3
TAP	66	0	6
TAP	66	48	7
TAP	66	96	2
TAP	66	96	6
TAP	66	144	3
TAP	66	144	4
TAP	66	192	2
TAP	66	192	5
TAP	66	240	0
TAP	66	240	7
TAP	66	288	1
STR	66	288	6
SI_	66	288	6	96	48	3
TAP	66	336	3
STR	67	0	1
SI_	67	0	1	96	48	5
TAP	67	0	6
TAP	67	48	0
TAP	67	96	1
STR	67	96	6
SI_	67	96	6	96	48	0
TAP	67	144	7
STR	67	192	2
SI_	67	192	2	96	48	6
TAP	67	192	6
TAP	67	240	1
TAP	67	288	2
STR	67	288	4
SI_	67	288	4	96	48	7
TAP	67	336	5
TAP	68	0	1
TAP	68	0	4
TAP	68	48	0
TAP	68	96	1
TAP	68	96	5
TAP	68	144	3
TAP	68	144	4
TAP	68	192	2
TAP	68	192	5
TAP	68	240	0
TAP	68	240	7
STR	68	288	1
SI_	68	288	1	96	48	4
TAP	68	288	6
TAP	68	336	4
TAP	69	0	1
STR	69	0	6
SI_	69	0	6	96	48	2
TAP	69	48	7
STR	69	96	1
SI_	69	96	1	96	48	7
TAP	69	96	6
TAP	69	144	0
TAP	69	192	1
STR	69	192	5
SI_	69	192	5	96	48	1
TAP	69	240	6
STR	69	288	3
SI_	69	288	3	96	48	0
TAP	69	288	5
TAP	69	336	2
TAP	70	0	3
TAP	70	0	6
TAP	70	48	7
TAP	70	96	2
TAP	70	144	1
TAP	70	144	5
TAP	70	240	3
STR	70	240	7
SCL	70	240	7	96	144	0
TAP	70	336	0
TAP	71	144	1
TAP	71	144	6
TAP	71	192	3
TAP	71	192	4
STR	71	240	2
SCL	71	240	2	96	144	5
TAP	71	240	5
TAP	71	288	1
TAP	71	288	6
TAP	71	336	7
TAP	72	144	2
TAP	72	144	6
STR	72	240	0
SCR	72	240	0	96	144	7
TAP	72	240	4
TAP	72	336	7
TAP	73	144	1
TAP	73	144	6
TAP	73	192	0
TAP	73	192	7
TAP	73	240	1
TAP	73	240	6
TAP	73	288	2
TAP	73	288	5
HLD	73	336	3	240
HLD	73	336	4	192
TAP	74	192	4
TAP	74	240	3
BRK	74	288	2
BRK	74	288	5
HLD	75	0	2	48
TAP	75	48	4
TAP	75	80	3
HLD	75	96	5	48
TAP	75	144	3
TAP	75	176	4
HLD	75	192	2	48
TAP	75	240	4
TAP	75	272	3
HLD	75	288	6	48
TAP	75	336	3
TAP	75	368	4
HLD	76	0	2	48
TAP	76	48	4
TAP	76	80	3
HLD	76	96	5	48
TAP	76	144	3
TAP	76	176	4
HLD	76	192	1	48
TAP	76	240	4
TAP	76	288	2
TAP	76	288	3
TAP	76	336	3
TAP	76	336	4
HLD	77	0	5	48
TAP	77	48	3
TAP	77	80	4
HLD	77	96	2	48
TAP	77	144	4
TAP	77	176	3
HLD	77	192	5	48
TAP	77	240	3
TAP	77	272	4
HLD	77	288	1	48
TAP	77	336	4
TAP	77	368	3
HLD	78	0	5	48
TAP	78	48	3
TAP	78	80	4
HLD	78	96	2	48
TAP	78	144	4
TAP	78	176	3
HLD	78	192	6	48
TAP	78	240	3
TAP	78	288	4
STR	78	288	5
SI_	78	288	5	96	48	2
TAP	78	336	3
TAP	78	336	4
BRK	79	0	2

T_REC_TAP	524
T_REC_BRK	7
T_REC_XTP	0
T_REC_HLD	51
T_REC_XHO	0
T_REC_STR	94
T_REC_BST	1
T_REC_XST	0
T_REC_TTP	0
T_REC_THO	0
T_REC_SLD	95
T_REC_ALL	772
T_NUM_TAP	618
T_NUM_BRK	8
T_NUM_HLD	51
T_NUM_SLD	95
T_NUM_ALL	772
T_JUDGE_TAP	626
T_JUDGE_HLD	139
T_JUDGE_SLD	95
T_JUDGE_ALL	860
TTM_EACHPAIRS	179
TTM_SCR_TAP	309000
TTM_SCR_BRK	20800
TTM_SCR_HLD	51000
TTM_SCR_SLD	142500
TTM_SCR_ALL	523300
TTM_SCR_S	506850
TTM_SCR_SS	522500
TTM_RAT_ACV	10015

