VERSION	0.00.00	1.03.00
FES_MODE	0
BPM_DEF	135.000	135.000	135.000	135.000
MET_DEF	4	4
RESOLUTION	384
CLK_DEF	384
COMPATIBLE_CODE	MA2

BPM	0	0	135.000

HLD	5	0	3	192
STR	5	0	4
SXR	5	0	4	96	96	2
STR	6	0	3
SXL	6	0	3	96	96	5
HLD	6	0	4	192
HLD	7	0	3	192
STR	7	0	4
SUR	7	0	4	96	96	1
TAP	8	0	4
TAP	8	48	4
TAP	8	96	3
TAP	8	144	3
TAP	8	192	5
TAP	8	240	5
TAP	8	288	3
TAP	8	288	4
TAP	9	0	2
TAP	9	96	2
TAP	9	96	3
TAP	9	192	5
TAP	9	288	4
TAP	9	288	5
TAP	10	0	2
TAP	10	96	1
TAP	10	96	3
TAP	10	192	4
TAP	10	240	4
TAP	10	288	3
TAP	10	288	4
TAP	11	0	5
TAP	11	96	4
TAP	11	96	5
TAP	11	192	2
TAP	11	288	2
TAP	11	288	3
TAP	12	0	5
TAP	12	96	4
TAP	12	96	6
TAP	12	192	3
TAP	12	240	3
TAP	12	288	3
TAP	12	288	4
TAP	13	0	2
TAP	13	96	1
TAP	13	96	3
TAP	13	192	5
TAP	13	288	4
TAP	13	288	6
TAP	14	0	2
TAP	14	96	1
TAP	14	96	3
TAP	14	192	5
TAP	14	240	5
TAP	14	288	4
TAP	14	288	5
TAP	15	0	2
TAP	15	96	1
TAP	15	96	3
TAP	15	192	5
TAP	15	288	4
TAP	15	288	6
TAP	16	0	2
TAP	16	0	3
TAP	16	96	4
TAP	16	96	5
STR	16	192	1
SI_	16	192	1	96	48	3
STR	16	192	6
SI_	16	192	6	96	48	4
HLD	17	0	1	384
HLD	17	0	6	576
TAP	19	0	3
HLD	19	0	7	576
TAP	19	96	4
TAP	19	192	1
TAP	19	288	3
TAP	20	0	4
TAP	20	48	4
TAP	20	96	3
TAP	20	192	3
TAP	20	288	2
TAP	20	288	4
TAP	21	0	3
HLD	21	0	6	192
TAP	21	96	4
TAP	21	192	3
TAP	21	240	3
TAP	21	288	4
HLD	22	0	1	192
TAP	22	0	4
TAP	22	96	3
TAP	22	192	4
TAP	22	240	4
TAP	22	288	3
HLD	23	0	0	576
TAP	23	0	4
TAP	23	96	3
TAP	23	192	6
TAP	23	288	4
TAP	24	0	3
TAP	24	48	3
TAP	24	96	4
TAP	24	192	4
TAP	24	288	3
TAP	24	288	5
HLD	25	0	1	192
TAP	25	0	4
TAP	25	96	3
TAP	25	192	4
TAP	25	240	4
TAP	25	288	3
TAP	26	0	3
HLD	26	0	6	192
TAP	26	96	4
TAP	26	192	3
TAP	26	240	3
TAP	26	288	4
TAP	27	0	5
HLD	27	48	5	96
TAP	27	144	4
TAP	27	240	2
TAP	27	240	3
TAP	27	336	3
TAP	27	336	6
TAP	28	48	4
TAP	28	48	5
TAP	28	144	1
TAP	28	144	4
TAP	28	240	3
TAP	28	240	5
TAP	28	336	3
TAP	28	336	6
HLD	29	0	3	96
TAP	29	0	6
TAP	29	96	4
TAP	29	192	2
TAP	29	240	2
TAP	29	288	2
TAP	29	288	3
TAP	30	0	1
HLD	30	0	4	96
TAP	30	96	3
TAP	30	192	5
TAP	30	240	5
TAP	30	288	4
TAP	30	288	5
TAP	31	0	2
HLD	31	48	2	96
TAP	31	144	3
TAP	31	240	4
TAP	31	240	5
TAP	31	336	1
TAP	31	336	4
TAP	32	48	2
TAP	32	48	3
TAP	32	144	7
TAP	32	192	7
TAP	32	240	0
TAP	32	288	1
TAP	32	288	6
TAP	33	0	4
TAP	33	48	4
TAP	33	96	3
TAP	33	144	3
HLD	33	192	5	96
TAP	33	288	4
TAP	34	0	1
TAP	34	48	1
TAP	34	96	4
TAP	34	144	4
TAP	34	192	2
TAP	34	192	4
TAP	34	240	2
TAP	34	240	4
HLD	34	336	1	240
TAP	35	96	3
HLD	35	192	3	192
TAP	35	288	4
HLD	36	0	4	96
STR	36	96	5
SUR	36	96	5	96	144	2
TAP	37	0	1
TAP	37	48	1
TAP	37	96	4
TAP	37	144	4
HLD	37	192	3	96
TAP	37	288	2
TAP	38	0	6
TAP	38	48	6
TAP	38	96	3
TAP	38	144	3
TAP	38	192	3
TAP	38	192	5
HLD	38	240	3	96
TAP	38	240	5
TAP	38	336	4
TAP	39	0	4
TAP	39	48	2
TAP	39	96	2
TAP	39	144	6
TAP	39	192	6
TAP	39	240	1
STR	39	288	0
SCR	39	288	0	96	96	3
STR	39	288	7
SCL	39	288	7	96	96	4
TAP	40	144	0
TAP	40	144	7
TAP	40	240	1
TAP	40	240	6
BRK	40	288	1
BRK	40	288	6
STR	41	0	1
SI_	41	0	1	96	48	3
STR	41	96	0
SI_	41	96	0	96	48	4
STR	41	192	1
SI_	41	192	1	96	48	3
STR	41	288	6
SLR	41	288	6	96	96	4
TAP	42	144	2
STR	42	192	2
SI_	42	192	2	96	48	7
STR	43	0	6
SI_	43	0	6	96	48	4
STR	43	96	7
SI_	43	96	7	96	48	3
STR	43	192	6
SI_	43	192	6	96	48	4
STR	43	288	1
SLL	43	288	1	96	96	3
TAP	44	144	5
STR	44	192	5
SI_	44	192	5	96	48	0
STR	45	0	1
SI_	45	0	1	96	48	3
STR	45	96	0
SI_	45	96	0	96	48	4
STR	45	192	1
SI_	45	192	1	96	48	3
STR	45	288	6
SLR	45	288	6	96	96	4
HLD	46	144	2	96
TAP	46	240	3
TAP	46	288	1
TAP	46	288	4
TAP	47	0	2
TAP	47	0	5
TAP	47	48	2
TAP	47	48	5
HLD	47	144	1	96
TAP	47	240	2
STR	47	288	2
SCL	47	288	2	96	120	5
TAP	48	192	3
TAP	48	240	3
TAP	48	288	3
TAP	48	288	4
TAP	49	0	1
HLD	49	0	3	288
TAP	49	96	1
HLD	49	192	2	96
HLD	50	0	4	288
TAP	50	0	6
TAP	50	96	6
HLD	50	192	5	96
HLD	51	0	2	192
TAP	51	0	3
HLD	51	192	5	192
HLD	52	0	4	192
TAP	52	192	3
TAP	53	0	2
HLD	53	0	3	288
TAP	53	96	1
HLD	53	192	2	96
HLD	54	0	4	288
TAP	54	0	5
TAP	54	96	6
HLD	54	192	5	96
HLD	55	0	1	96
HLD	55	0	3	96
HLD	55	192	3	96
HLD	55	192	5	96
STR	56	0	2
SCL	56	0	2	96	96	7
STR	56	0	6
SCL	56	0	6	96	96	3
BRK	56	288	1
BRK	56	288	6
STR	57	0	1
SI_	57	0	1	96	48	4
STR	57	96	0
SI_	57	96	0	96	48	5
STR	57	192	1
SI_	57	192	1	96	48	4
STR	57	288	6
SLR	57	288	6	96	96	4
TAP	58	144	3
STR	58	192	3
SI_	58	192	3	96	48	7
STR	59	0	6
SI_	59	0	6	96	48	3
STR	59	96	7
SI_	59	96	7	96	48	2
STR	59	192	6
SI_	59	192	6	96	48	3
STR	59	288	1
SLL	59	288	1	96	96	3
TAP	60	144	4
STR	60	192	4
SI_	60	192	4	96	48	0
STR	61	0	1
SI_	61	0	1	96	48	4
STR	61	96	0
SI_	61	96	0	96	48	5
STR	61	192	1
SI_	61	192	1	96	48	4
STR	61	288	6
SLR	61	288	6	96	96	4
HLD	62	144	2	96
TAP	62	144	5
TAP	62	240	3
TAP	62	288	1
TAP	62	288	4
TAP	63	0	2
TAP	63	0	5
TAP	63	48	2
TAP	63	48	5
HLD	63	144	2	96
TAP	63	144	3
TAP	63	240	1
STR	63	288	1
SCL	63	288	1	96	120	4
HLD	64	144	7	96
TAP	64	240	6
TAP	64	288	6
TAP	64	288	7
TAP	65	0	0
TAP	65	0	7
TAP	65	48	1
TAP	65	48	6
BRK	65	96	2
BRK	65	96	5
STR	65	192	6
SI_	65	192	6	96	48	2
STR	65	288	1
SLL	65	288	1	96	96	3
TAP	66	144	2
TAP	66	144	5
TAP	66	192	2
STR	66	192	5
SCR	66	192	5	96	48	0
STR	67	0	1
SI_	67	0	1	96	48	5
STR	67	96	0
SI_	67	96	0	96	48	4
STR	67	192	1
SI_	67	192	1	96	48	5
STR	67	288	6
SLR	67	288	6	96	96	4
TAP	68	144	2
TAP	68	144	5
STR	68	192	2
SCL	68	192	2	96	48	7
TAP	68	192	5
STR	69	0	6
SI_	69	0	6	96	48	3
STR	69	96	0
SI_	69	96	0	96	48	4
STR	69	192	7
SI_	69	192	7	96	48	3
TAP	69	288	1
TAP	70	0	1
TAP	70	0	4
HLD	70	48	1	96
TAP	70	48	4
TAP	70	144	0
STR	70	240	6
SCL	70	240	6	96	144	3
STR	70	240	7
SCR	70	240	7	96	144	2
TAP	71	144	1
TAP	71	144	3
TAP	71	192	1
TAP	71	192	3
TAP	71	288	4
TAP	71	288	6
TAP	71	336	4
HLD	71	336	6	192
TAP	72	144	7
TAP	72	240	0
TAP	72	240	7
HLD	72	336	1	528
HLD	72	336	6	432
TAP	74	192	3
TAP	74	192	4
TAP	74	240	3
TAP	74	240	4
TAP	74	288	3
TAP	74	288	4
HLD	75	0	2	96
TAP	75	0	3
TAP	75	96	1
TAP	75	192	1
TAP	75	288	0
TAP	75	288	2
TAP	76	0	4
HLD	76	0	5	96
TAP	76	96	6
TAP	76	192	6
TAP	76	288	5
TAP	76	288	7
HLD	77	0	2	96
TAP	77	0	3
TAP	77	96	0
TAP	77	192	0
TAP	77	288	1
TAP	77	288	7
TAP	78	0	4
TAP	78	0	5
TAP	78	96	2
TAP	78	96	3
TAP	78	192	1
TAP	78	192	6
TAP	78	240	1
TAP	78	240	6
STR	78	288	1
SI_	78	288	1	96	48	4
STR	78	288	6
SI_	78	288	6	96	48	3

T_REC_TAP	267
T_REC_BRK	6
T_REC_XTP	0
T_REC_HLD	48
T_REC_XHO	0
T_REC_STR	55
T_REC_BST	0
T_REC_XST	0
T_REC_TTP	0
T_REC_THO	0
T_REC_SLD	55
T_REC_ALL	431
T_NUM_TAP	322
T_NUM_BRK	6
T_NUM_HLD	48
T_NUM_SLD	55
T_NUM_ALL	431
T_JUDGE_TAP	328
T_JUDGE_HLD	191
T_JUDGE_SLD	55
T_JUDGE_ALL	574
TTM_EACHPAIRS	101
TTM_SCR_TAP	161000
TTM_SCR_BRK	15600
TTM_SCR_HLD	48000
TTM_SCR_SLD	82500
TTM_SCR_ALL	307100
TTM_SCR_S	297350
TTM_SCR_SS	306500
TTM_RAT_ACV	10019

