VERSION	0.00.00	1.03.00
FES_MODE	0
BPM_DEF	135.000	135.000	135.000	135.000
MET_DEF	4	4
RESOLUTION	384
CLK_DEF	384
COMPATIBLE_CODE	MA2

BPM	0	0	135.000

STR	1	0	4
SXL	1	0	4	96	480	7
STR	3	0	0
SXL	3	0	0	96	480	3
HLD	5	0	5	192
TAP	5	192	4
HLD	6	0	5	192
TAP	6	192	4
HLD	7	0	2	192
TAP	7	192	3
HLD	8	0	2	192
TAP	8	192	3
TAP	9	0	5
TAP	9	96	4
TAP	9	192	4
TAP	9	192	5
TAP	10	0	2
TAP	10	96	3
TAP	10	192	2
TAP	10	192	3
TAP	11	0	1
TAP	11	96	0
TAP	11	192	7
TAP	11	288	6
TAP	12	0	0
TAP	12	0	7
TAP	12	96	0
TAP	12	96	7
TAP	12	192	1
TAP	12	192	6
TAP	13	0	1
TAP	13	96	0
TAP	13	192	0
TAP	13	192	1
TAP	14	0	6
TAP	14	96	7
TAP	14	192	6
TAP	14	192	7
TAP	15	0	5
TAP	15	96	4
TAP	15	192	3
TAP	15	288	2
TAP	16	0	3
TAP	16	0	4
TAP	16	96	3
TAP	16	96	4
TAP	16	192	2
TAP	16	192	5
TAP	17	0	1
TAP	17	96	1
TAP	17	192	0
TAP	17	288	0
TAP	18	0	7
TAP	18	96	7
TAP	18	192	6
TAP	18	288	6
TAP	19	0	5
TAP	19	96	5
TAP	19	192	4
TAP	19	192	6
TAP	20	0	2
TAP	20	96	2
TAP	20	192	1
TAP	20	192	3
TAP	21	0	2
TAP	21	96	2
TAP	21	192	3
TAP	21	288	3
TAP	22	0	4
TAP	22	96	4
TAP	22	192	5
TAP	22	288	5
TAP	23	0	6
TAP	23	96	6
TAP	23	192	6
TAP	23	192	7
TAP	24	0	1
TAP	24	96	1
TAP	24	192	0
TAP	24	192	1
TAP	25	0	2
TAP	25	96	3
TAP	25	192	2
TAP	25	192	3
TAP	25	288	3
TAP	25	288	4
TAP	26	0	5
TAP	26	96	4
TAP	26	192	4
TAP	26	192	5
TAP	26	288	3
TAP	26	288	4
STR	27	0	4
SI_	27	0	4	96	192	7
STR	28	0	0
SI_	28	0	0	96	192	3
TAP	29	0	5
TAP	29	96	4
TAP	29	192	4
TAP	29	192	5
TAP	29	288	3
TAP	29	288	4
TAP	30	0	2
TAP	30	96	3
TAP	30	192	2
TAP	30	192	3
TAP	30	288	3
TAP	30	288	4
STR	31	0	3
SI_	31	0	3	96	192	0
STR	32	0	7
SI_	32	0	7	96	192	4
HLD	33	0	2	192
TAP	33	96	3
TAP	33	192	3
HLD	34	0	5	192
TAP	34	96	4
TAP	34	192	4
HLD	35	0	3	192
HLD	35	192	4	192
TAP	36	0	3
TAP	36	96	3
TAP	36	96	4
TAP	36	192	2
TAP	36	192	5
HLD	37	0	6	192
TAP	37	96	7
TAP	37	192	7
HLD	38	0	1	192
TAP	38	96	0
TAP	38	192	0
HLD	39	0	7	192
HLD	39	192	0	192
TAP	40	0	7
TAP	40	96	0
TAP	40	96	7
TAP	40	192	1
TAP	40	192	6
BRK	40	288	1
BRK	40	288	6
TAP	41	0	0
TAP	41	0	1
TAP	41	96	2
TAP	41	96	7
TAP	41	192	6
TAP	41	192	7
TAP	41	288	0
TAP	41	288	5
TAP	42	0	0
TAP	42	0	7
TAP	42	96	0
TAP	42	96	7
TAP	42	192	1
TAP	42	192	6
TAP	42	288	0
TAP	42	288	7
TAP	43	0	6
TAP	43	0	7
TAP	43	96	0
TAP	43	96	5
TAP	43	192	0
TAP	43	192	1
TAP	43	288	2
TAP	43	288	7
TAP	44	0	0
TAP	44	0	7
TAP	44	96	0
TAP	44	96	7
TAP	44	192	1
TAP	44	192	6
TAP	45	0	4
TAP	45	0	5
TAP	45	96	3
TAP	45	96	6
TAP	45	192	2
TAP	45	192	3
TAP	45	288	1
TAP	45	288	4
TAP	46	0	3
TAP	46	0	4
TAP	46	96	3
TAP	46	96	4
TAP	46	192	2
TAP	46	192	5
TAP	46	288	3
TAP	46	288	4
HLD	47	0	2	96
TAP	47	96	3
HLD	47	192	5	96
TAP	47	288	4
TAP	48	0	3
TAP	48	0	4
TAP	48	96	3
TAP	48	96	4
BRK	48	192	2
BRK	48	192	5
HLD	49	0	2	384
HLD	50	0	3	384
HLD	51	0	4	384
HLD	52	0	5	192
TAP	52	192	4
HLD	53	0	6	384
HLD	54	0	7	384
HLD	55	0	0	384
HLD	56	0	1	192
TAP	56	192	0
TAP	57	0	1
TAP	57	0	7
TAP	57	96	2
TAP	57	96	6
TAP	57	192	0
TAP	57	192	6
TAP	57	288	1
TAP	57	288	5
TAP	58	0	1
TAP	58	0	7
TAP	58	96	1
TAP	58	96	7
TAP	58	192	0
TAP	58	192	6
TAP	58	288	1
TAP	58	288	7
TAP	59	0	0
TAP	59	0	6
TAP	59	96	1
TAP	59	96	5
TAP	59	192	1
TAP	59	192	7
TAP	59	288	2
TAP	59	288	6
TAP	60	0	0
TAP	60	0	6
TAP	60	96	1
TAP	60	96	7
TAP	60	192	0
TAP	60	192	6
TAP	61	0	3
TAP	61	0	5
TAP	61	96	2
TAP	61	96	6
TAP	61	192	2
TAP	61	192	4
TAP	61	288	1
TAP	61	288	5
TAP	62	0	3
TAP	62	0	4
TAP	62	96	2
TAP	62	96	5
TAP	62	192	1
TAP	62	192	6
TAP	62	288	0
TAP	62	288	7
HLD	63	0	1	96
TAP	63	96	0
HLD	63	192	6	96
TAP	63	288	7
STR	64	0	5
SCL	64	0	5	96	192	2
TAP	65	0	2
TAP	65	0	3
TAP	65	96	1
TAP	65	96	4
TAP	65	192	0
TAP	65	192	5
TAP	65	288	6
TAP	65	288	7
TAP	66	0	0
TAP	66	0	1
TAP	66	96	0
TAP	66	96	1
TAP	66	192	6
TAP	66	192	7
TAP	66	288	0
TAP	66	288	1
TAP	67	0	6
TAP	67	0	7
TAP	67	96	0
TAP	67	96	5
TAP	67	192	1
TAP	67	192	4
TAP	67	288	2
TAP	67	288	3
TAP	68	0	3
TAP	68	0	4
TAP	68	96	3
TAP	68	96	4
TAP	68	192	2
TAP	68	192	5
TAP	69	0	4
TAP	69	0	5
TAP	69	96	3
TAP	69	96	6
TAP	69	192	2
TAP	69	192	7
TAP	69	288	0
TAP	69	288	1
TAP	70	0	6
TAP	70	0	7
TAP	70	96	6
TAP	70	96	7
TAP	70	192	0
TAP	70	192	1
TAP	70	288	6
TAP	70	288	7
TAP	71	0	0
TAP	71	0	1
TAP	71	96	2
TAP	71	96	7
TAP	71	192	3
TAP	71	192	6
TAP	71	288	4
TAP	71	288	5
TAP	72	0	2
TAP	72	0	3
TAP	72	96	2
TAP	72	96	3
TAP	72	192	4
TAP	72	192	5
TAP	72	288	4
TAP	72	288	5
HLD	73	0	2	96
TAP	73	96	3
HLD	73	192	5	96
TAP	73	288	4
TAP	74	0	3
TAP	74	0	4
TAP	74	96	3
TAP	74	96	4
BRK	74	192	2
BRK	74	192	5
TAP	75	0	5
TAP	75	96	4
TAP	75	192	4
TAP	75	192	5
TAP	76	0	2
TAP	76	96	3
TAP	76	192	2
TAP	76	192	3
TAP	77	0	1
TAP	77	96	0
TAP	77	192	7
TAP	77	288	6
TAP	78	0	0
TAP	78	0	7
TAP	78	96	0
TAP	78	96	7
TAP	78	192	1
TAP	78	192	6
TAP	78	288	1
TAP	78	288	6
BRK	79	0	2
BRK	79	0	5

T_REC_TAP	304
T_REC_BRK	8
T_REC_XTP	0
T_REC_HLD	26
T_REC_XHO	0
T_REC_STR	7
T_REC_BST	0
T_REC_XST	0
T_REC_TTP	0
T_REC_THO	0
T_REC_SLD	7
T_REC_ALL	352
T_NUM_TAP	311
T_NUM_BRK	8
T_NUM_HLD	26
T_NUM_SLD	7
T_NUM_ALL	352
T_JUDGE_TAP	319
T_JUDGE_HLD	116
T_JUDGE_SLD	7
T_JUDGE_ALL	442
TTM_EACHPAIRS	117
TTM_SCR_TAP	155500
TTM_SCR_BRK	20800
TTM_SCR_HLD	26000
TTM_SCR_SLD	10500
TTM_SCR_ALL	212800
TTM_SCR_S	205650
TTM_SCR_SS	212000
TTM_RAT_ACV	10037

