VERSION	0.00.00	1.03.00
FES_MODE	0
BPM_DEF	135.000	135.000	135.000	135.000
MET_DEF	4	4
RESOLUTION	384
CLK_DEF	384
COMPATIBLE_CODE	MA2

BPM	0	0	135.000

TAP	5	0	3
TAP	5	192	3
TAP	6	0	4
TAP	6	192	4
TAP	7	0	3
TAP	7	192	3
TAP	8	0	4
TAP	8	192	4
TAP	8	288	3
TAP	8	288	4
TAP	9	0	3
TAP	9	96	3
TAP	9	192	3
TAP	10	0	2
TAP	10	96	2
TAP	10	192	2
TAP	11	0	1
TAP	11	96	1
TAP	11	192	1
HLD	12	0	0	192
TAP	13	0	7
TAP	13	96	7
TAP	13	192	7
TAP	14	0	6
TAP	14	96	6
TAP	14	192	6
TAP	15	0	5
TAP	15	96	5
TAP	15	192	5
HLD	16	0	4	192
TAP	17	0	3
TAP	17	0	4
TAP	19	0	4
TAP	19	96	4
TAP	19	192	4
TAP	20	0	5
TAP	20	96	5
TAP	20	192	5
TAP	21	0	6
TAP	21	96	6
TAP	21	192	6
TAP	22	0	7
TAP	22	96	7
TAP	22	192	7
STR	23	0	0
SI_	23	0	0	96	288	4
TAP	25	0	7
TAP	25	96	7
TAP	25	192	7
TAP	26	0	0
TAP	26	96	0
TAP	26	192	0
STR	27	0	7
SI_	27	0	7	96	288	3
TAP	29	0	0
TAP	29	96	0
TAP	29	192	0
TAP	30	0	1
TAP	30	96	1
TAP	30	192	1
HLD	31	0	2	192
HLD	31	0	3	192
TAP	32	0	2
TAP	32	0	3
TAP	32	192	2
TAP	32	192	3
TAP	33	0	4
TAP	33	96	4
TAP	33	192	4
TAP	34	0	3
TAP	34	96	3
TAP	34	192	3
HLD	35	0	4	192
HLD	36	0	3	192
TAP	37	0	4
TAP	37	96	4
TAP	37	192	4
TAP	38	0	5
TAP	38	96	5
TAP	38	192	5
HLD	39	0	6	192
TAP	40	0	0
TAP	40	0	7
TAP	40	96	0
TAP	40	96	7
BRK	40	192	0
BRK	40	192	7
TAP	41	0	7
TAP	41	96	7
TAP	41	192	7
TAP	42	0	6
TAP	42	96	6
TAP	42	192	6
TAP	42	192	7
TAP	43	0	5
TAP	43	96	5
TAP	43	192	4
TAP	43	288	4
TAP	44	0	3
TAP	44	96	3
TAP	44	192	3
TAP	44	192	4
TAP	45	0	3
TAP	45	96	3
TAP	45	192	3
TAP	46	0	2
TAP	46	96	2
TAP	46	192	2
TAP	46	192	3
TAP	47	0	1
TAP	47	96	1
TAP	47	192	0
TAP	47	288	0
TAP	48	0	7
TAP	48	96	7
TAP	48	192	0
TAP	48	192	7
STR	49	0	0
SI_	49	0	0	96	288	3
STR	51	0	7
SI_	51	0	7	96	288	4
STR	53	0	0
SI_	53	0	0	96	288	3
STR	55	0	7
SI_	55	0	7	96	288	4
TAP	57	0	0
TAP	57	96	0
TAP	57	192	0
TAP	58	0	1
TAP	58	96	1
TAP	58	192	0
TAP	58	192	1
TAP	59	0	2
TAP	59	96	2
TAP	59	192	3
TAP	59	288	3
TAP	60	0	4
TAP	60	96	4
TAP	60	192	3
TAP	60	192	5
TAP	61	0	4
TAP	61	96	4
TAP	61	192	4
TAP	62	0	5
TAP	62	96	5
TAP	62	192	4
TAP	62	192	5
TAP	63	0	6
TAP	63	96	6
TAP	63	192	7
TAP	63	288	7
TAP	64	0	0
TAP	64	96	0
TAP	64	192	1
TAP	64	192	7
TAP	65	0	7
TAP	65	96	7
TAP	65	192	7
TAP	66	0	6
TAP	66	96	6
TAP	66	192	6
TAP	66	192	7
TAP	67	0	5
TAP	67	96	5
TAP	67	192	4
TAP	67	288	4
TAP	68	0	3
TAP	68	96	3
TAP	68	192	2
TAP	68	192	4
TAP	69	0	3
TAP	69	96	3
TAP	69	192	3
TAP	70	0	2
TAP	70	96	2
TAP	70	192	2
TAP	70	192	3
TAP	71	0	1
TAP	71	96	1
TAP	71	192	0
TAP	71	288	0
TAP	72	0	7
TAP	72	96	7
TAP	72	192	0
TAP	72	192	6
STR	73	0	0
SI_	73	0	0	96	288	3
TAP	75	0	4
TAP	75	96	4
TAP	75	192	3
TAP	75	192	5
TAP	76	0	3
TAP	76	96	3
TAP	76	192	2
TAP	76	192	4
TAP	77	0	4
TAP	77	96	4
TAP	77	192	3
TAP	77	192	5
TAP	78	0	3
TAP	78	96	3
TAP	78	192	2
TAP	78	192	4
BRK	79	0	3
BRK	79	0	4

T_REC_TAP	180
T_REC_BRK	4
T_REC_XTP	0
T_REC_HLD	7
T_REC_XHO	0
T_REC_STR	7
T_REC_BST	0
T_REC_XST	0
T_REC_TTP	0
T_REC_THO	0
T_REC_SLD	7
T_REC_ALL	205
T_NUM_TAP	187
T_NUM_BRK	4
T_NUM_HLD	7
T_NUM_SLD	7
T_NUM_ALL	205
T_JUDGE_TAP	191
T_JUDGE_HLD	28
T_JUDGE_SLD	7
T_JUDGE_ALL	226
TTM_EACHPAIRS	25
TTM_SCR_TAP	93500
TTM_SCR_BRK	10400
TTM_SCR_HLD	7000
TTM_SCR_SLD	10500
TTM_SCR_ALL	121400
TTM_SCR_S	117400
TTM_SCR_SS	121000
TTM_RAT_ACV	10033

