VERSION	0.00.00	1.03.00
FES_MODE	0
BPM_DEF	185.000	185.000	185.000	185.000
MET_DEF	4	4
RESOLUTION	384
CLK_DEF	384
COMPATIBLE_CODE	MA2

BPM	0	0	185.000

TAP	1	0	2
TAP	1	96	2
TAP	1	192	2
TAP	1	216	3
TAP	1	240	2
TAP	1	264	3
BRK	1	288	1
STR	2	0	0
SI_	2	0	0	96	48	2
STR	2	0	5
SI_	2	0	5	96	48	3
TAP	2	96	0
TAP	2	96	5
TAP	2	192	6
TAP	2	192	7
TAP	2	288	0
TAP	2	288	5
HLD	3	0	1	48
HLD	3	48	0	48
STR	3	96	1
SLR	3	96	1	96	144	6
SLR	3	96	1	96	144	7
TAP	3	144	0
HLD	4	0	0	96
HLD	4	96	1	96
HLD	4	192	2	96
STR	4	288	3
SXR	4	288	3	96	192	7
TAP	4	336	3
BRK	5	288	7
STR	6	0	5
SCR	6	0	5	96	48	0
STR	6	96	2
SCL	6	96	2	96	48	7
STR	6	192	6
SCL	6	192	6	96	48	3
TAP	6	288	2
TAP	7	0	0
TAP	7	48	0
TAP	7	96	1
TAP	7	96	4
TAP	7	144	2
TAP	7	144	3
TAP	7	192	1
TAP	7	216	0
TAP	7	240	1
TAP	7	288	2
TAP	7	288	7
TAP	8	0	1
TAP	8	0	7
TAP	8	48	0
TAP	8	96	1
TAP	8	96	7
TAP	8	144	0
TAP	8	192	2
TAP	8	216	3
TAP	8	240	2
TAP	8	288	1
TAP	8	288	4
TAP	8	336	2
TAP	8	336	3
TAP	9	48	2
TAP	9	48	3
TAP	9	96	4
TAP	9	144	5
STR	9	192	5
SI_	9	192	5	96	48	2
STR	9	192	6
SI_	9	192	6	96	48	2
STR	10	0	2
SCL	10	0	2	96	48	7
STR	10	96	5
SCR	10	96	5	96	48	0
STR	10	192	1
SCR	10	192	1	96	48	4
TAP	10	288	5
TAP	11	0	7
TAP	11	48	7
TAP	11	96	3
TAP	11	96	6
TAP	11	144	4
TAP	11	144	5
TAP	11	192	0
TAP	11	240	0
TAP	11	288	0
TAP	11	336	7
TAP	12	0	1
TAP	12	64	1
TAP	12	96	4
TAP	12	160	4
TAP	12	192	3
TAP	12	256	3
TAP	12	288	6
TAP	12	352	6
TAP	13	0	1
TAP	13	64	1
TAP	13	96	3
TAP	13	160	3
TAP	13	192	4
TAP	13	256	4
TAP	13	288	6
HLD	14	0	0	96
HLD	14	0	7	96
BRK	14	192	2
BRK	14	192	5
TAP	15	0	0
TAP	15	0	7
TAP	15	64	7
TAP	15	96	0
TAP	15	160	7
HLD	15	192	0	96
BRK	15	288	7
HLD	16	0	4	96
HLD	16	0	5	96
TAP	16	192	3
TAP	16	192	6
TAP	16	288	1
STR	16	336	1
SLR	16	336	1	96	120	7
TAP	16	336	4
TAP	17	48	3
TAP	17	96	4
TAP	17	144	5
TAP	17	192	6
TAP	17	288	0
TAP	17	288	5
TAP	18	0	4
BST	18	0	5
SI_	18	0	5	96	48	0
TAP	18	96	3
BST	18	192	2
SI_	18	192	2	96	48	7
TAP	18	192	3
BST	18	288	4
SXL	18	288	4	96	192	0
TAP	19	0	2
TAP	19	96	1
TAP	19	144	2
TAP	19	192	3
TAP	19	288	0
TAP	19	288	1
HLD	20	0	4	96
TAP	20	0	5
TAP	20	96	7
TAP	20	192	2
HLD	20	192	3	96
TAP	20	288	0
STR	21	0	4
SF_	21	0	4	96	96	0
TAP	21	0	5
TAP	21	288	0
TAP	21	336	0
TAP	22	0	6
TAP	22	48	7
TAP	22	96	5
TAP	22	144	4
TAP	22	240	1
TAP	22	240	7
TAP	22	336	3
TAP	22	336	5
TAP	23	48	4
STR	23	96	0
SI_	23	96	0	96	48	3
STR	23	96	4
SI_	23	96	4	96	48	7
TAP	23	288	1
TAP	23	288	5
HLD	24	0	2	96
HLD	24	0	3	96
TAP	24	192	1
TAP	24	192	4
TAP	24	288	6
TAP	24	336	3
STR	24	336	6
SLL	24	336	6	96	120	0
TAP	25	48	4
TAP	25	96	3
TAP	25	144	2
TAP	25	192	1
TAP	25	288	2
TAP	25	288	7
STR	26	0	2
SCL	26	0	2	96	48	7
TAP	26	0	3
TAP	26	96	4
TAP	26	192	4
STR	26	192	5
SCR	26	192	5	96	48	0
STR	26	288	3
SXR	26	288	3	96	192	7
TAP	27	96	6
TAP	27	144	5
TAP	27	192	4
TAP	27	288	6
TAP	27	288	7
TAP	28	0	2
HLD	28	0	3	96
TAP	28	96	0
HLD	28	192	4	96
TAP	28	192	5
BST	28	288	7
SCR	28	288	7	96	96	2
STR	29	0	2
SCR	29	0	2	96	96	5
TAP	29	96	5
TAP	29	192	0
TAP	29	288	0
TAP	29	288	7
TAP	30	0	6
TAP	30	48	4
TAP	30	96	1
TAP	30	144	3
TAP	30	192	4
TAP	30	240	3
TAP	30	288	4
TAP	30	336	2
TAP	30	336	5
TAP	31	48	1
TAP	31	48	6
STR	31	96	1
SI_	31	96	1	96	48	4
STR	31	96	6
SI_	31	96	6	96	48	3
TAP	31	144	1
TAP	31	144	6
TAP	31	192	1
TAP	31	192	6
BRK	31	288	1
BRK	31	288	6
TAP	32	0	2
STR	32	0	4
SUR	32	0	4	96	144	2
TAP	32	144	3
TAP	32	192	3
TAP	32	288	0
STR	33	0	3
SUL	33	0	3	96	144	5
TAP	33	0	5
TAP	33	144	4
TAP	33	192	4
TAP	33	288	7
TAP	34	0	1
STR	34	0	3
SUR	34	0	3	96	144	0
TAP	34	144	2
TAP	34	192	2
STR	34	288	1
SF_	34	288	1	96	144	5
TAP	35	288	0
TAP	35	288	1
TAP	36	0	1
STR	36	0	3
SCR	36	0	3	96	72	6
TAP	36	144	7
TAP	36	192	7
TAP	36	288	0
TAP	36	288	5
STR	37	0	4
SCL	37	0	4	96	72	1
TAP	37	0	6
TAP	37	144	0
TAP	37	192	0
TAP	37	288	2
TAP	37	288	7
STR	38	0	2
SCL	38	0	2	96	72	7
TAP	38	0	4
TAP	38	144	6
TAP	38	192	6
STR	38	288	0
SCR	38	288	0	96	240	6
SUR	38	288	0	96	240	7
TAP	38	288	5
HLD	40	0	6	192
HLD	40	192	5	192
HLD	41	0	4	192
HLD	41	192	3	192
HLD	42	0	2	192
STR	42	192	1
SLR	42	192	1	96	192	7
STR	43	0	6
SLL	43	0	6	96	168	0
BRK	43	288	1
HLD	44	0	2	96
HLD	44	0	5	96
HLD	44	192	0	192
HLD	44	192	7	192
TAP	45	96	2
TAP	45	96	5
TAP	45	192	1
TAP	45	192	6
STR	45	240	1
SLR	45	240	1	96	240	0
STR	45	240	6
SLL	45	240	6	96	240	7
STR	46	336	1
SI_	46	336	1	96	48	3
STR	46	336	6
SI_	46	336	6	96	48	4
TAP	47	48	1
TAP	47	48	6
TAP	47	144	0
TAP	47	144	7
BRK	47	240	0
BST	47	288	7
SI_	47	288	7	96	48	3
BRK	47	336	7
BST	48	0	1
SLR	48	0	1	96	144	0
BST	48	0	7
SLL	48	0	7	96	144	0
BRK	48	96	1
BRK	48	96	7
STR	48	288	6
SCL	48	288	6	96	48	3
TAP	48	336	6
TAP	49	48	1
TAP	49	96	0
TAP	49	144	2
TAP	49	144	7
TAP	49	240	7
STR	49	288	0
SI_	49	288	0	96	48	4
TAP	49	336	0
BST	50	0	0
SLR	50	0	0	96	144	7
BST	50	0	6
SLL	50	0	6	96	144	7
BRK	50	96	0
BRK	50	96	6
STR	50	288	1
SCR	50	288	1	96	48	4
TAP	50	336	1
TAP	51	48	5
TAP	51	96	6
TAP	51	144	7
STR	51	192	2
SV_	51	192	2	96	48	3
STR	51	192	7
SV_	51	192	7	96	48	6
TAP	51	288	2
TAP	51	288	7
HLD	52	0	1	96
TAP	52	96	3
TAP	52	144	3
TAP	52	192	2
TAP	52	288	0
STR	52	288	6
SI_	52	288	6	96	48	4
TAP	53	0	6
STR	53	0	7
SI_	53	0	7	96	48	3
STR	53	96	0
SI_	53	96	0	96	48	2
TAP	53	96	7
TAP	53	192	0
TAP	53	192	2
TAP	53	288	0
TAP	53	288	7
HLD	54	0	6	96
TAP	54	48	5
TAP	54	96	4
TAP	54	144	3
HLD	54	192	3	96
TAP	54	240	4
TAP	54	288	5
STR	54	336	2
SI_	54	336	2	96	48	7
STR	54	336	6
SI_	54	336	6	96	48	3
TAP	55	48	2
TAP	55	48	6
TAP	55	144	1
TAP	55	144	4
TAP	55	192	1
TAP	55	192	4
BST	55	288	0
SI_	55	288	0	96	48	4
TAP	55	288	7
BST	56	0	0
SLR	56	0	0	96	144	7
BST	56	0	6
SLL	56	0	6	96	144	7
BRK	56	96	0
BRK	56	96	6
STR	56	288	1
SCR	56	288	1	96	48	4
TAP	56	336	1
TAP	57	48	6
TAP	57	96	7
TAP	57	144	0
TAP	57	144	5
TAP	57	240	0
STR	57	288	7
SI_	57	288	7	96	48	3
TAP	57	336	7
BST	58	0	1
SLR	58	0	1	96	144	0
BST	58	0	7
SLL	58	0	7	96	144	0
BRK	58	96	1
BRK	58	96	7
STR	58	288	6
SCL	58	288	6	96	48	3
TAP	58	336	6
TAP	59	48	2
TAP	59	96	1
TAP	59	144	0
STR	59	192	6
SI_	59	192	6	96	48	4
STR	59	192	7
SI_	59	192	7	96	48	3
HLD	60	0	1	96
TAP	60	96	3
TAP	60	144	3
TAP	60	192	2
TAP	60	288	0
STR	60	288	7
SI_	60	288	7	96	48	3
STR	61	0	0
SI_	61	0	0	96	48	4
TAP	61	0	7
TAP	61	96	0
STR	61	96	5
SCL	61	96	5	96	48	2
TAP	61	192	5
TAP	61	288	0
TAP	61	288	1
HLD	62	0	2	96
TAP	62	0	7
TAP	62	96	0
TAP	62	144	7
HLD	62	192	6	96
TAP	62	288	7
TAP	62	336	0
TAP	62	336	5
TAP	63	48	0
TAP	63	48	1
TAP	63	96	2
TAP	63	96	7
TAP	63	144	3
TAP	63	144	6
TAP	63	192	4
TAP	63	192	5
TAP	63	288	2
TAP	63	288	6
STR	64	0	0
SI_	64	0	0	96	48	2
STR	64	0	5
SI_	64	0	5	96	48	3
TAP	64	96	0
TAP	64	96	5
TAP	64	192	6
TAP	64	192	7
TAP	64	288	0
TAP	64	288	5
HLD	65	0	1	48
HLD	65	48	0	48
STR	65	96	1
SLR	65	96	1	96	144	6
SLR	65	96	1	96	144	7
TAP	65	144	0
HLD	66	0	0	96
HLD	66	96	1	96
HLD	66	192	2	96
STR	66	288	3
SXR	66	288	3	96	192	7
TAP	66	336	3
BRK	67	288	7
STR	68	0	0
SCL	68	0	0	96	48	5
TAP	68	0	2
TAP	68	192	5
STR	68	192	7
SCR	68	192	7	96	48	2
TAP	69	0	4
STR	69	0	6
SCL	69	0	6	96	48	3
TAP	69	144	1
TAP	69	192	2
TAP	69	240	3
TAP	69	288	4
TAP	69	336	5
TAP	70	0	6
TAP	70	24	7
TAP	70	48	6
TAP	70	72	7
TAP	70	96	6
TAP	70	144	0
TAP	70	192	1
TAP	70	192	7
STR	70	288	0
SSL	70	288	0	96	288	4
STR	70	288	6
SXL	70	288	6	96	288	2
STR	72	0	4
SCL	72	0	4	96	48	1
TAP	72	0	6
TAP	72	192	1
STR	72	192	3
SCR	72	192	3	96	48	6
HLD	73	0	1	96
HLD	73	96	3	96
HLD	73	192	5	96
TAP	73	288	7
HLD	74	0	0	96
HLD	74	0	7	96
TAP	74	144	0
TAP	74	144	7
TAP	74	192	1
TAP	74	192	6
STR	74	288	3
SLR	74	288	3	96	192	1
STR	74	288	7
SLL	74	288	7	96	192	1
TAP	75	288	3
TAP	75	288	7
TAP	76	0	5
STR	76	0	7
SCR	76	0	7	96	48	2
STR	76	192	0
SCL	76	192	0	96	48	5
TAP	76	192	2
TAP	77	0	1
TAP	77	48	2
TAP	77	96	3
TAP	77	144	4
TAP	77	144	6
TAP	77	240	4
TAP	77	288	3
TAP	77	336	2
TAP	78	0	1
TAP	78	24	0
TAP	78	48	1
TAP	78	72	0
TAP	78	96	1
STR	78	192	6
SUR	78	192	6	96	96	4
STR	78	192	7
SI_	78	192	7	96	96	1
STR	79	96	0
SUR	79	96	0	96	96	4
STR	79	96	6
SI_	79	96	6	96	96	1
HLD	80	0	2	64
HLD	80	64	3	64
TAP	80	128	1
HLD	80	192	6	64
HLD	80	256	4	64
TAP	80	320	7
HLD	81	0	2	64
HLD	81	64	0	64
TAP	81	128	1
STR	81	192	1
SCR	81	192	1	96	48	4
STR	81	192	7
SCL	81	192	7	96	48	4
STR	82	336	4
SUL	82	336	4	96	192	1
STR	82	336	5
SXL	82	336	5	96	192	0
STR	84	0	5
SCR	84	0	5	96	168	0
STR	85	0	2
SCL	85	0	2	96	168	7
STR	86	0	5
SCR	86	0	5	96	192	1
STR	87	0	2
SCL	87	0	2	96	192	6
TAP	88	0	5
TAP	88	96	6
TAP	88	192	0
TAP	88	192	7
TAP	88	288	1
TAP	88	288	2
HLD	89	0	3	48
HLD	89	0	4	48
HLD	89	96	3	48
HLD	89	96	4	48
TAP	89	192	1
TAP	89	192	6
STR	89	288	1
SCR	89	288	1	96	144	6
TAP	89	288	6
STR	90	288	1
SXR	90	288	1	96	192	4
STR	90	288	6
SXL	90	288	6	96	192	3
TAP	90	336	1
TAP	90	336	6
STR	91	288	0
SI_	91	288	0	96	48	4
BST	92	0	0
SLR	92	0	0	96	144	6
BST	92	0	5
SLL	92	0	5	96	144	7
BRK	92	96	0
BRK	92	96	5
STR	92	288	1
SCR	92	288	1	96	48	4
TAP	92	336	1
TAP	93	48	6
TAP	93	96	7
TAP	93	144	0
TAP	93	144	5
TAP	93	240	1
STR	93	288	7
SI_	93	288	7	96	48	3
TAP	93	336	7
BST	94	0	2
SLR	94	0	2	96	144	0
BST	94	0	7
SLL	94	0	7	96	144	1
BRK	94	96	2
BRK	94	96	7
STR	94	288	6
SCL	94	288	6	96	48	3
TAP	94	336	6
TAP	95	48	2
TAP	95	96	1
TAP	95	144	0
STR	95	192	0
SV_	95	192	0	96	48	1
STR	95	192	5
SV_	95	192	5	96	48	4
TAP	95	288	0
TAP	95	288	5
HLD	96	0	6	96
TAP	96	96	3
TAP	96	144	3
TAP	96	192	4
TAP	96	192	5
STR	96	288	1
SI_	96	288	1	96	48	4
TAP	96	288	7
STR	97	0	0
SI_	97	0	0	96	48	4
TAP	97	0	1
TAP	97	96	0
STR	97	96	7
SI_	97	96	7	96	48	4
TAP	97	192	5
TAP	97	192	7
TAP	97	288	0
TAP	97	288	7
HLD	98	0	1	96
TAP	98	48	2
TAP	98	96	3
TAP	98	144	4
HLD	98	192	4	96
TAP	98	240	3
TAP	98	288	2
STR	98	336	1
SI_	98	336	1	96	48	4
STR	98	336	5
SI_	98	336	5	96	48	0
TAP	99	48	1
TAP	99	48	5
TAP	99	144	3
TAP	99	144	6
TAP	99	192	3
TAP	99	192	6
STR	99	288	0
SI_	99	288	0	96	48	2
SI_	99	288	0	96	48	6
STR	100	0	0
SI_	100	0	0	96	48	4
STR	100	96	0
SI_	100	96	0	96	48	3
SI_	100	96	0	96	48	5
TAP	100	192	0
STR	100	288	6
SCL	100	288	6	96	48	3
TAP	100	336	6
TAP	101	48	1
TAP	101	96	1
TAP	101	144	2
TAP	101	144	7
TAP	101	240	0
STR	101	288	7
SI_	101	288	7	96	48	1
SI_	101	288	7	96	48	5
TAP	101	336	7
STR	102	0	7
SI_	102	0	7	96	48	3
STR	102	96	7
SI_	102	96	7	96	48	2
SI_	102	96	7	96	48	4
TAP	102	192	7
STR	102	288	1
SCR	102	288	1	96	48	4
TAP	102	336	1
TAP	103	48	5
TAP	103	96	6
TAP	103	144	7
STR	103	192	0
SUR	103	192	0	96	48	4
STR	103	192	1
SCR	103	192	1	96	48	3
HLD	104	0	5	96
TAP	104	96	2
TAP	104	144	2
TAP	104	192	3
TAP	104	192	4
STR	104	288	0
SI_	104	288	0	96	48	4
STR	104	288	7
SI_	104	288	7	96	48	5
STR	105	0	0
SI_	105	0	0	96	48	2
STR	105	0	7
SI_	105	0	7	96	48	3
STR	105	96	0
SI_	105	96	0	96	48	4
STR	105	96	7
SI_	105	96	7	96	48	5
TAP	105	192	0
TAP	105	192	7
TAP	105	288	1
STR	105	288	6
SCL	105	288	6	96	144	1
TAP	106	144	0
TAP	106	192	0
TAP	106	288	1
TAP	106	288	7
TAP	106	336	1
TAP	106	336	7
TAP	107	48	0
TAP	107	48	7
TAP	107	96	1
TAP	107	96	6
TAP	107	144	2
TAP	107	144	5
STR	107	192	3
SI_	107	192	3	96	48	0
STR	107	192	4
SI_	107	192	4	96	48	7
TAP	107	288	3
TAP	107	288	4
TAP	108	0	1
TAP	108	0	6
HLD	108	96	1	96
HLD	108	96	6	96
HLD	108	240	1	72
HLD	108	240	6	72
HLD	108	360	1	48
HLD	108	360	6	48
HLD	109	72	1	120
HLD	109	72	6	120
STR	109	288	0
SXL	109	288	0	96	240	4
STR	109	288	4
SXL	109	288	4	96	240	0
HLD	110	336	0	240
STR	110	336	7
SCL	110	336	7	96	144	1
BRK	111	288	2
BRK	111	288	6

T_REC_TAP	390
T_REC_BRK	25
T_REC_XTP	0
T_REC_HLD	64
T_REC_XHO	0
T_REC_STR	118
T_REC_BST	18
T_REC_XST	0
T_REC_TTP	0
T_REC_THO	0
T_REC_SLD	143
T_REC_ALL	758
T_NUM_TAP	508
T_NUM_BRK	43
T_NUM_HLD	64
T_NUM_SLD	143
T_NUM_ALL	758
T_JUDGE_TAP	551
T_JUDGE_HLD	137
T_JUDGE_SLD	143
T_JUDGE_ALL	831
TTM_EACHPAIRS	171
TTM_SCR_TAP	254000
TTM_SCR_BRK	111800
TTM_SCR_HLD	64000
TTM_SCR_SLD	214500
TTM_SCR_ALL	644300
TTM_SCR_S	620800
TTM_SCR_SS	640000
TTM_RAT_ACV	10067

