VERSION	0.00.00	1.03.00
FES_MODE	0
BPM_DEF	185.000	185.000	185.000	185.000
MET_DEF	4	4
RESOLUTION	384
CLK_DEF	384
COMPATIBLE_CODE	MA2

BPM	0	0	185.000

TAP	1	0	1
TAP	1	96	1
TAP	1	192	0
TAP	1	240	0
BRK	1	288	7
STR	2	0	3
SI_	2	0	3	96	48	0
STR	2	96	4
SI_	2	96	4	96	48	7
TAP	2	192	0
TAP	2	288	0
TAP	2	288	7
STR	3	0	3
SI_	3	0	3	96	48	0
STR	3	96	4
SI_	3	96	4	96	48	7
TAP	3	192	0
TAP	3	288	0
TAP	3	288	7
TAP	4	0	0
TAP	4	96	1
STR	4	192	2
SXR	4	192	2	96	240	4
TAP	4	288	3
TAP	5	288	1
TAP	5	288	6
STR	6	0	5
SI_	6	0	5	96	48	2
STR	6	96	1
SI_	6	96	1	96	48	4
STR	6	192	7
SI_	6	192	7	96	48	3
STR	6	288	2
SI_	6	288	2	96	48	7
STR	7	0	6
SI_	7	0	6	96	48	3
STR	7	96	2
SCL	7	96	2	96	96	5
TAP	7	192	4
TAP	7	288	4
STR	8	0	2
SI_	8	0	2	96	48	5
STR	8	96	6
SI_	8	96	6	96	48	3
STR	8	192	0
SI_	8	192	0	96	48	4
STR	8	288	5
SI_	8	288	5	96	48	0
STR	9	0	1
SI_	9	0	1	96	48	4
STR	9	96	5
SCR	9	96	5	96	96	2
TAP	9	192	3
TAP	9	288	3
STR	10	0	5
SI_	10	0	5	96	48	2
STR	10	96	1
SI_	10	96	1	96	48	4
STR	10	192	7
SI_	10	192	7	96	48	3
STR	10	288	2
SI_	10	288	2	96	48	7
STR	11	0	6
SI_	11	0	6	96	48	3
STR	11	96	2
SCL	11	96	2	96	96	5
TAP	11	192	4
TAP	11	288	4
HLD	12	0	6	96
HLD	12	96	4	96
HLD	12	192	3	96
TAP	12	288	1
HLD	13	0	1	96
HLD	13	96	3	96
HLD	13	192	4	96
TAP	13	288	6
HLD	14	0	0	96
HLD	14	0	7	96
HLD	14	192	0	96
HLD	14	192	7	96
TAP	15	0	1
TAP	15	0	6
TAP	15	96	1
TAP	15	96	6
TAP	15	192	1
TAP	15	192	6
STR	16	0	4
SCL	16	0	4	96	96	0
HLD	16	0	5	192
TAP	16	288	6
HLD	16	336	6	96
TAP	17	48	7
TAP	17	96	7
TAP	17	192	0
TAP	17	192	5
TAP	17	288	3
TAP	17	288	4
STR	18	0	1
SCR	18	0	1	96	48	4
TAP	18	0	5
TAP	18	96	7
TAP	18	192	2
STR	18	192	6
SCL	18	192	6	96	48	3
TAP	18	288	0
STR	19	0	1
SCR	19	0	1	96	48	4
TAP	19	0	5
TAP	19	96	7
TAP	19	192	0
TAP	19	192	6
TAP	19	288	2
TAP	19	288	3
STR	20	0	6
SCL	20	0	6	96	96	3
TAP	20	144	2
STR	20	192	2
SCL	20	192	2	96	96	7
TAP	20	336	5
TAP	21	0	5
TAP	21	96	2
TAP	21	96	7
TAP	21	192	3
TAP	21	192	6
TAP	21	288	4
TAP	21	288	5
TAP	22	0	2
STR	22	0	6
SCL	22	0	6	96	48	3
TAP	22	96	0
STR	22	192	1
SCR	22	192	1	96	48	4
TAP	22	192	5
TAP	22	288	7
TAP	23	0	2
STR	23	0	6
SCL	23	0	6	96	48	3
TAP	23	96	0
TAP	23	192	1
TAP	23	192	7
TAP	23	288	4
TAP	23	288	5
HLD	24	0	2	192
STR	24	0	3
SCR	24	0	3	96	96	7
TAP	24	288	1
HLD	24	336	1	96
TAP	25	48	0
TAP	25	96	0
TAP	25	192	2
TAP	25	192	7
TAP	25	288	3
TAP	25	288	4
STR	26	0	2
SCL	26	0	2	96	48	7
TAP	26	0	6
TAP	26	96	4
TAP	26	192	1
STR	26	192	5
SCR	26	192	5	96	48	0
TAP	26	288	3
STR	27	0	2
SCL	27	0	2	96	48	7
TAP	27	0	6
TAP	27	96	4
TAP	27	192	3
TAP	27	192	5
TAP	27	288	2
TAP	27	288	3
STR	28	0	1
SCR	28	0	1	96	96	4
TAP	28	144	6
TAP	28	192	6
STR	28	288	0
SCR	28	288	0	96	96	3
STR	28	288	7
SCL	28	288	7	96	96	4
TAP	29	192	1
TAP	29	192	6
TAP	29	288	3
TAP	29	288	4
STR	30	0	5
SI_	30	0	5	96	48	0
STR	30	96	1
SI_	30	96	1	96	48	4
STR	30	192	7
SI_	30	192	7	96	48	3
TAP	30	288	0
TAP	30	336	0
TAP	31	48	1
TAP	31	48	6
TAP	31	96	1
TAP	31	96	6
TAP	31	144	1
TAP	31	144	6
TAP	31	192	1
TAP	31	192	6
BRK	31	288	0
STR	32	0	5
SCL	32	0	5	96	96	2
TAP	32	144	0
TAP	32	192	0
TAP	32	288	1
TAP	32	288	4
STR	33	0	2
SCR	33	0	2	96	96	5
TAP	33	144	7
TAP	33	192	7
TAP	33	288	3
TAP	33	288	6
STR	34	0	5
SCL	34	0	5	96	96	2
TAP	34	144	0
TAP	34	192	0
STR	34	288	2
SCL	34	288	2	96	144	5
TAP	35	0	4
TAP	35	192	7
TAP	35	288	0
TAP	35	288	7
STR	36	0	2
SI_	36	0	2	96	48	0
STR	36	0	3
SI_	36	0	3	96	48	7
STR	36	192	4
SI_	36	192	4	96	48	0
STR	36	192	5
SI_	36	192	5	96	48	7
STR	37	0	2
SI_	37	0	2	96	48	0
STR	37	0	3
SI_	37	0	3	96	48	7
STR	37	192	4
SI_	37	192	4	96	48	0
STR	37	192	5
SI_	37	192	5	96	48	7
HLD	38	0	0	96
HLD	38	0	7	96
TAP	38	144	1
TAP	38	144	6
TAP	38	192	1
TAP	38	192	6
STR	38	288	3
SCL	38	288	3	96	288	5
TAP	39	0	4
TAP	39	96	4
TAP	39	192	4
TAP	39	288	4
STR	40	0	4
SUL	40	0	4	96	96	7
TAP	40	0	6
TAP	40	96	6
TAP	40	192	5
TAP	40	288	5
TAP	41	0	1
STR	41	0	3
SUR	41	0	3	96	96	0
TAP	41	96	1
TAP	41	192	2
TAP	41	288	2
STR	42	0	4
SUL	42	0	4	96	96	7
TAP	42	0	6
TAP	42	96	6
TAP	42	192	5
TAP	42	288	5
HLD	43	0	2	96
HLD	43	0	3	96
TAP	43	192	4
HLD	43	192	5	96
TAP	43	288	4
STR	44	0	2
SI_	44	0	2	96	48	0
STR	44	96	5
SI_	44	96	5	96	48	7
STR	44	192	3
SI_	44	192	3	96	48	0
STR	44	288	4
SI_	44	288	4	96	48	7
STR	45	0	2
SI_	45	0	2	96	48	0
STR	45	96	5
SI_	45	96	5	96	48	7
TAP	45	192	3
TAP	45	288	3
TAP	45	288	4
HLD	46	0	1	288
HLD	46	0	6	288
TAP	46	336	0
TAP	46	336	7
STR	47	48	0
SCR	47	48	0	96	96	3
STR	47	48	7
SCL	47	48	7	96	96	4
TAP	47	288	1
TAP	47	288	6
STR	48	0	0
SI_	48	0	0	96	48	5
STR	48	0	1
SI_	48	0	1	96	48	4
TAP	48	192	2
TAP	48	192	7
TAP	48	288	2
TAP	48	288	3
STR	48	336	2
SI_	48	336	2	96	48	7
STR	48	336	3
SI_	48	336	3	96	48	6
TAP	49	144	0
TAP	49	144	5
TAP	49	240	7
TAP	49	288	7
STR	50	0	6
SI_	50	0	6	96	48	3
STR	50	0	7
SI_	50	0	7	96	48	2
TAP	50	192	0
TAP	50	192	5
TAP	50	288	2
TAP	50	288	7
TAP	50	336	2
TAP	50	336	7
TAP	51	48	3
TAP	51	48	4
TAP	51	96	3
TAP	51	96	4
TAP	51	144	2
TAP	51	144	5
TAP	51	192	1
TAP	51	192	6
BRK	51	288	7
STR	52	0	2
SI_	52	0	2	96	48	7
TAP	52	0	3
TAP	52	96	4
TAP	52	192	4
STR	52	192	5
SI_	52	192	5	96	48	0
TAP	52	288	3
TAP	53	0	0
TAP	53	0	7
TAP	53	96	3
TAP	53	96	4
TAP	53	192	1
TAP	53	192	6
TAP	53	288	0
STR	54	0	6
SI_	54	0	6	96	48	1
TAP	54	48	6
STR	54	96	2
SI_	54	96	2	96	48	5
TAP	54	144	2
STR	54	192	4
SCR	54	192	4	96	192	3
TAP	54	240	4
TAP	54	288	3
TAP	55	192	1
TAP	55	192	6
BRK	55	288	0
STR	56	0	6
SI_	56	0	6	96	48	3
STR	56	0	7
SI_	56	0	7	96	48	2
TAP	56	192	0
TAP	56	240	0
TAP	56	288	5
STR	56	336	4
SI_	56	336	4	96	48	1
STR	56	336	5
SI_	56	336	5	96	48	0
TAP	57	144	2
TAP	57	144	7
TAP	57	240	7
TAP	57	288	7
STR	58	0	0
SI_	58	0	0	96	48	5
STR	58	0	1
SI_	58	0	1	96	48	4
TAP	58	192	7
TAP	58	240	7
TAP	58	288	2
STR	58	336	2
SI_	58	336	2	96	48	7
STR	58	336	3
SI_	58	336	3	96	48	6
TAP	59	144	0
TAP	59	144	5
TAP	59	240	7
TAP	59	288	7
TAP	60	0	4
STR	60	0	5
SI_	60	0	5	96	48	0
TAP	60	96	3
STR	60	192	2
SI_	60	192	2	96	48	7
TAP	60	192	3
TAP	60	288	4
TAP	61	0	0
TAP	61	0	7
TAP	61	96	3
TAP	61	96	4
TAP	61	192	1
TAP	61	192	6
STR	61	288	7
SCL	61	288	7	96	192	1
TAP	62	0	1
TAP	62	144	0
TAP	62	192	0
TAP	62	288	3
TAP	62	288	4
TAP	62	336	3
TAP	62	336	4
TAP	63	48	1
TAP	63	48	6
TAP	63	96	1
TAP	63	96	6
TAP	63	192	0
TAP	63	192	7
TAP	63	288	2
TAP	63	288	5
TAP	64	0	2
STR	64	0	3
SI_	64	0	3	96	48	0
TAP	64	96	2
STR	64	192	4
SI_	64	192	4	96	48	7
TAP	64	192	5
TAP	64	288	5
TAP	65	0	2
STR	65	0	3
SI_	65	0	3	96	48	0
TAP	65	96	1
STR	65	192	4
SI_	65	192	4	96	48	7
TAP	65	192	5
TAP	65	288	6
TAP	66	0	0
TAP	66	96	1
STR	66	192	2
SXR	66	192	2	96	288	5
TAP	66	288	3
BRK	67	288	7
STR	68	0	1
SI_	68	0	1	96	48	5
TAP	68	48	1
STR	68	96	7
SI_	68	96	7	96	48	4
TAP	68	144	7
STR	68	192	3
SI_	68	192	3	96	48	0
TAP	68	240	3
STR	68	288	6
SI_	68	288	6	96	48	2
TAP	68	336	6
STR	69	0	0
SI_	69	0	0	96	48	4
TAP	69	48	0
TAP	69	96	6
TAP	69	144	6
TAP	69	192	7
TAP	69	240	7
STR	69	288	0
SSL	69	288	0	96	144	4
TAP	69	336	0
TAP	70	0	7
TAP	70	192	5
STR	70	288	3
SCL	70	288	3	96	288	5
TAP	70	288	6
TAP	71	0	4
TAP	71	96	4
TAP	71	192	4
TAP	71	288	4
STR	72	0	7
SI_	72	0	7	96	48	4
TAP	72	48	7
STR	72	96	0
SI_	72	96	0	96	48	3
TAP	72	144	0
STR	72	192	5
SI_	72	192	5	96	48	2
TAP	72	240	5
STR	72	288	1
SI_	72	288	1	96	48	6
TAP	72	336	1
STR	73	0	5
SI_	73	0	5	96	48	0
TAP	73	48	5
STR	73	96	1
SI_	73	96	1	96	48	4
TAP	73	144	1
STR	73	192	6
SI_	73	192	6	96	48	3
TAP	73	240	6
TAP	73	288	2
TAP	74	0	1
TAP	74	0	4
TAP	74	96	0
TAP	74	96	7
TAP	74	144	0
TAP	74	144	7
TAP	74	192	0
TAP	74	192	7
TAP	74	264	1
TAP	74	264	6
TAP	74	336	2
TAP	74	336	5
TAP	75	0	2
STR	75	0	5
SCR	75	0	5	96	192	2
TAP	75	192	3
TAP	75	240	3
TAP	75	288	3
STR	76	0	1
SI_	76	0	1	96	48	4
TAP	76	0	5
TAP	76	96	5
TAP	76	192	2
STR	76	192	6
SI_	76	192	6	96	48	3
TAP	76	288	2
STR	77	0	1
SI_	77	0	1	96	48	4
TAP	77	0	5
TAP	77	96	7
TAP	77	192	2
STR	77	192	6
SI_	77	192	6	96	48	3
TAP	77	288	0
STR	78	0	2
SCL	78	0	2	96	192	5
TAP	78	0	4
TAP	78	96	4
TAP	78	192	4
TAP	78	288	4
TAP	79	0	3
STR	79	0	5
SCR	79	0	5	96	192	2
TAP	79	96	3
TAP	79	192	3
TAP	79	288	3
HLD	80	0	2	72
HLD	80	72	3	72
TAP	80	144	4
HLD	80	192	5	72
HLD	80	264	4	72
TAP	80	336	3
HLD	81	0	2	72
HLD	81	72	3	72
TAP	81	144	4
STR	81	192	2
SI_	81	192	2	96	48	5
TAP	81	192	5
TAP	81	288	6
HLD	82	0	7	336
TAP	82	336	0
TAP	83	48	1
TAP	83	48	6
TAP	83	96	1
TAP	83	96	6
TAP	83	144	1
TAP	83	144	6
TAP	83	192	1
TAP	83	192	6
TAP	84	0	4
STR	84	0	5
SCR	84	0	5	96	480	2
TAP	84	192	4
TAP	85	0	3
TAP	85	192	3
STR	86	0	2
SCL	86	0	2	96	480	5
TAP	86	0	3
TAP	86	192	3
TAP	87	0	4
TAP	87	192	4
TAP	87	288	4
TAP	88	0	4
TAP	88	96	4
TAP	88	192	3
TAP	88	288	3
TAP	89	0	3
TAP	89	0	4
TAP	89	96	0
TAP	89	96	7
TAP	89	192	1
TAP	89	192	6
STR	89	288	4
SUL	89	288	4	96	240	3
TAP	90	0	3
TAP	90	336	3
TAP	90	336	4
TAP	91	48	3
TAP	91	48	4
TAP	91	144	1
TAP	91	144	6
TAP	91	192	1
TAP	91	192	6
BRK	91	288	7
STR	92	0	0
SI_	92	0	0	96	48	5
STR	92	0	1
SI_	92	0	1	96	48	4
TAP	92	192	2
TAP	92	192	7
TAP	92	288	2
TAP	92	288	3
STR	92	336	2
SI_	92	336	2	96	48	7
STR	92	336	3
SI_	92	336	3	96	48	6
TAP	93	144	0
TAP	93	144	5
TAP	93	240	7
TAP	93	288	7
STR	94	0	6
SI_	94	0	6	96	48	3
STR	94	0	7
SI_	94	0	7	96	48	2
TAP	94	192	0
TAP	94	192	5
TAP	94	288	2
TAP	94	288	7
TAP	94	336	2
TAP	94	336	7
TAP	95	48	3
TAP	95	48	4
TAP	95	96	3
TAP	95	96	4
TAP	95	144	2
TAP	95	144	5
TAP	95	192	1
TAP	95	192	6
BRK	95	288	7
STR	96	0	2
SI_	96	0	2	96	48	7
TAP	96	0	3
TAP	96	96	4
TAP	96	192	4
STR	96	192	5
SI_	96	192	5	96	48	0
TAP	96	288	3
TAP	97	0	0
TAP	97	0	7
TAP	97	96	3
TAP	97	96	4
TAP	97	192	1
TAP	97	192	6
TAP	97	288	0
TAP	97	288	7
STR	98	0	1
SI_	98	0	1	96	48	6
TAP	98	48	1
STR	98	96	5
SI_	98	96	5	96	48	2
TAP	98	144	5
TAP	98	192	0
TAP	98	288	3
TAP	98	288	4
TAP	98	336	3
TAP	98	336	4
TAP	99	48	0
TAP	99	48	7
TAP	99	144	1
TAP	99	144	6
TAP	99	192	1
STR	99	192	6
SI_	99	192	6	96	48	2
TAP	99	288	0
STR	100	0	5
SI_	100	0	5	96	48	0
TAP	100	48	5
STR	100	96	1
SI_	100	96	1	96	48	4
TAP	100	144	1
TAP	100	192	7
TAP	100	240	7
TAP	100	288	6
TAP	100	336	6
TAP	101	48	6
TAP	101	48	7
TAP	101	96	0
TAP	101	96	5
TAP	101	144	1
TAP	101	144	4
TAP	101	240	3
TAP	101	240	4
TAP	101	288	3
TAP	101	288	4
STR	102	0	2
SI_	102	0	2	96	48	7
TAP	102	48	2
STR	102	96	6
SI_	102	96	6	96	48	3
TAP	102	144	6
TAP	102	192	0
TAP	102	240	0
TAP	102	288	1
TAP	102	336	1
TAP	103	48	0
TAP	103	48	1
TAP	103	96	2
TAP	103	96	7
TAP	103	144	3
TAP	103	144	6
TAP	103	240	3
TAP	103	240	4
TAP	103	288	3
TAP	103	288	4
STR	104	0	0
SCR	104	0	0	96	48	3
TAP	104	0	7
TAP	104	96	4
TAP	104	192	0
STR	104	192	7
SCL	104	192	7	96	48	4
STR	104	288	3
SI_	104	288	3	96	48	7
STR	105	0	5
SI_	105	0	5	96	48	1
STR	105	96	2
SI_	105	96	2	96	48	7
TAP	105	192	4
TAP	105	288	2
STR	105	288	5
SCR	105	288	5	96	192	2
TAP	106	0	2
TAP	106	144	3
TAP	106	192	3
TAP	106	288	3
TAP	106	288	4
STR	106	336	3
SCL	106	336	3	96	96	0
STR	106	336	4
SCR	106	336	4	96	96	7
TAP	107	192	1
TAP	107	192	6
TAP	107	288	1
TAP	107	288	6
TAP	108	0	3
TAP	108	0	5
TAP	108	96	2
TAP	108	96	4
TAP	108	192	3
TAP	108	192	5
TAP	108	240	3
HLD	108	240	5	96
HLD	108	336	7	96
HLD	109	48	0	96
TAP	109	144	2
TAP	109	192	2
TAP	109	288	3
STR	109	288	4
SSL	109	288	4	96	240	0
TAP	110	336	0
TAP	110	336	7
TAP	111	48	0
TAP	111	48	7
TAP	111	96	1
TAP	111	96	6
TAP	111	144	2
TAP	111	144	5
BRK	111	288	1
BRK	111	288	6

T_REC_TAP	440
T_REC_BRK	9
T_REC_XTP	0
T_REC_HLD	31
T_REC_XHO	0
T_REC_STR	142
T_REC_BST	0
T_REC_XST	0
T_REC_TTP	0
T_REC_THO	0
T_REC_SLD	142
T_REC_ALL	764
T_NUM_TAP	582
T_NUM_BRK	9
T_NUM_HLD	31
T_NUM_SLD	142
T_NUM_ALL	764
T_JUDGE_TAP	591
T_JUDGE_HLD	79
T_JUDGE_SLD	142
T_JUDGE_ALL	812
TTM_EACHPAIRS	178
TTM_SCR_TAP	291000
TTM_SCR_BRK	23400
TTM_SCR_HLD	31000
TTM_SCR_SLD	213000
TTM_SCR_ALL	558400
TTM_SCR_S	540800
TTM_SCR_SS	557500
TTM_RAT_ACV	10016

