VERSION	0.00.00	1.03.00
FES_MODE	0
BPM_DEF	185.000	185.000	185.000	185.000
MET_DEF	4	4
RESOLUTION	384
CLK_DEF	384
COMPATIBLE_CODE	MA2

BPM	0	0	185.000

TAP	2	0	2
TAP	2	0	3
TAP	2	96	1
TAP	2	96	5
TAP	2	192	0
TAP	2	192	7
TAP	2	288	0
TAP	2	288	7
TAP	3	0	4
TAP	3	0	5
TAP	3	96	2
TAP	3	96	6
TAP	3	192	0
TAP	3	192	7
TAP	3	288	0
TAP	3	288	7
BRK	4	0	2
BRK	4	0	5
STR	4	336	1
SCR	4	336	1	96	144	6
BRK	5	288	7
TAP	6	0	1
TAP	6	96	4
TAP	6	96	5
TAP	6	192	6
TAP	6	288	2
TAP	6	288	3
TAP	7	0	0
TAP	7	96	4
TAP	7	96	5
TAP	7	192	7
TAP	7	288	2
TAP	7	288	3
TAP	8	0	5
TAP	8	96	6
TAP	8	96	7
TAP	8	192	2
TAP	8	288	0
TAP	8	288	1
TAP	9	0	3
TAP	9	0	4
TAP	9	96	2
STR	9	96	5
SUL	9	96	5	96	96	1
TAP	10	0	1
TAP	10	96	4
TAP	10	96	5
TAP	10	192	6
TAP	10	288	2
TAP	10	288	3
TAP	11	0	1
TAP	11	96	0
TAP	11	96	6
TAP	11	192	5
TAP	11	288	1
TAP	11	288	7
HLD	12	0	0	96
HLD	12	96	1	96
HLD	12	192	2	96
HLD	12	288	3	96
HLD	13	0	4	96
HLD	13	96	5	96
HLD	13	192	6	96
TAP	13	288	7
STR	14	0	0
SV_	14	0	0	96	96	2
STR	14	0	7
SV_	14	0	7	96	96	5
TAP	15	0	4
TAP	15	0	5
TAP	15	96	2
TAP	15	96	3
BRK	15	192	1
BRK	15	192	6
HLD	16	0	4	192
HLD	16	0	6	192
HLD	16	336	2	96
HLD	16	336	3	96
TAP	17	96	2
TAP	17	96	3
TAP	17	192	0
TAP	17	192	5
BRK	17	288	7
TAP	18	0	5
TAP	18	96	4
TAP	18	96	6
TAP	18	192	2
TAP	18	288	1
TAP	18	288	3
STR	19	0	0
SLL	19	0	0	96	120	4
TAP	19	0	7
HLD	20	0	5	96
TAP	20	96	4
HLD	20	192	2	96
TAP	20	288	3
HLD	21	0	0	192
STR	21	0	1
SCR	21	0	1	96	96	4
TAP	21	288	1
TAP	21	288	6
TAP	22	0	2
TAP	22	96	6
TAP	22	96	7
TAP	22	192	5
TAP	22	288	0
TAP	22	288	1
HLD	22	336	0	144
HLD	22	336	1	144
TAP	23	192	3
TAP	23	192	4
TAP	23	288	1
TAP	23	288	6
HLD	24	0	1	192
HLD	24	0	3	192
HLD	24	336	4	96
HLD	24	336	5	96
TAP	25	96	4
TAP	25	96	5
TAP	25	192	2
TAP	25	192	7
BRK	25	288	0
TAP	26	0	2
TAP	26	96	1
TAP	26	96	3
TAP	26	192	5
TAP	26	288	4
TAP	26	288	6
TAP	27	0	0
STR	27	0	7
SLR	27	0	7	96	120	3
HLD	28	0	2	96
TAP	28	96	3
HLD	28	192	5	96
TAP	28	288	4
HLD	29	0	2	192
STR	29	0	3
SCR	29	0	3	96	96	6
TAP	29	288	0
TAP	29	288	5
TAP	30	0	4
TAP	30	96	0
TAP	30	96	1
TAP	30	192	3
TAP	30	288	1
TAP	30	288	6
TAP	30	336	1
TAP	30	336	6
BRK	31	48	4
BRK	31	96	3
BRK	31	144	4
BRK	31	192	3
BRK	31	288	1
BRK	31	288	6
HLD	32	0	5	192
TAP	32	144	4
TAP	32	192	4
TAP	32	288	3
TAP	32	288	6
HLD	33	0	2	192
TAP	33	144	3
TAP	33	192	3
TAP	33	288	1
TAP	33	288	4
HLD	34	0	5	192
TAP	34	144	4
TAP	34	192	4
TAP	34	288	3
STR	34	288	6
SCR	34	288	6	96	96	1
TAP	35	192	3
TAP	35	288	1
TAP	35	288	6
TAP	36	0	2
TAP	36	96	1
TAP	36	96	3
TAP	36	192	5
TAP	36	288	4
TAP	36	288	6
TAP	37	0	2
TAP	37	96	1
TAP	37	96	7
TAP	37	192	5
TAP	37	288	0
TAP	37	288	6
STR	38	0	1
SLR	38	0	1	96	144	7
STR	38	0	6
SLL	38	0	6	96	144	0
STR	39	0	4
SXL	39	0	4	96	240	0
TAP	39	0	5
HLD	40	0	6	384
HLD	41	0	4	384
HLD	42	0	3	384
STR	43	0	1
SUR	43	0	1	96	120	6
BRK	43	288	7
STR	44	0	0
SXL	44	0	0	96	96	2
STR	44	0	7
SXR	44	0	7	96	96	5
STR	45	0	2
SLR	45	0	2	96	192	1
STR	45	0	7
SLL	45	0	7	96	192	0
BRK	46	0	2
BRK	46	0	7
STR	46	336	3
SI_	46	336	3	96	72	0
STR	46	336	4
SI_	46	336	4	96	72	7
BRK	47	192	1
BRK	47	192	6
TAP	47	288	5
TAP	48	0	2
TAP	48	0	3
TAP	48	96	0
TAP	48	96	7
TAP	48	192	4
TAP	48	192	5
TAP	48	288	0
TAP	48	288	7
STR	48	336	0
SUL	48	336	0	96	96	3
STR	48	336	7
SCL	48	336	7	96	96	4
TAP	49	192	2
TAP	49	288	1
TAP	49	288	6
TAP	50	0	4
TAP	50	0	5
TAP	50	96	0
TAP	50	96	7
TAP	50	192	2
TAP	50	192	3
TAP	50	288	0
TAP	50	288	7
STR	50	336	0
SCR	50	336	0	96	96	3
STR	50	336	7
SUR	50	336	7	96	96	4
TAP	51	192	5
BRK	51	288	1
BRK	51	288	6
HLD	52	0	0	96
TAP	52	96	2
HLD	52	192	7	96
TAP	52	288	5
TAP	53	0	1
TAP	53	0	3
TAP	53	96	4
TAP	53	96	6
TAP	53	192	0
TAP	53	192	7
BRK	53	288	6
TAP	54	0	0
TAP	54	48	0
TAP	54	96	6
TAP	54	144	6
TAP	54	192	2
TAP	54	240	2
TAP	54	288	4
TAP	54	336	4
TAP	55	48	2
TAP	55	48	3
TAP	55	144	0
TAP	55	144	7
TAP	55	192	0
TAP	55	192	7
BRK	55	288	2
TAP	56	0	4
TAP	56	0	5
TAP	56	96	0
TAP	56	96	7
TAP	56	192	2
TAP	56	192	3
TAP	56	288	0
TAP	56	288	7
STR	56	336	0
SCR	56	336	0	96	96	3
STR	56	336	7
SUR	56	336	7	96	96	4
TAP	57	192	5
TAP	57	288	1
TAP	57	288	6
TAP	58	0	2
TAP	58	0	3
TAP	58	96	0
TAP	58	96	7
TAP	58	192	4
TAP	58	192	5
TAP	58	288	0
TAP	58	288	7
STR	58	336	0
SUL	58	336	0	96	96	3
STR	58	336	7
SCL	58	336	7	96	96	4
TAP	59	192	2
BRK	59	288	1
BRK	59	288	6
STR	60	0	1
SUL	60	0	1	96	192	6
TAP	61	0	1
TAP	61	0	3
TAP	61	96	4
TAP	61	96	6
TAP	61	192	0
TAP	61	192	7
BST	61	288	4
SCL	61	288	4	96	96	1
BST	61	288	5
SCR	61	288	5	96	96	0
TAP	62	192	2
TAP	62	192	7
HLD	62	336	4	96
TAP	63	48	3
TAP	63	144	0
TAP	63	144	7
TAP	63	192	0
TAP	63	192	7
BRK	63	288	2
BRK	63	288	5
TAP	64	0	4
TAP	64	0	5
TAP	64	96	2
TAP	64	96	6
TAP	64	192	0
TAP	64	192	7
TAP	64	288	0
TAP	64	288	7
TAP	65	0	2
TAP	65	0	3
TAP	65	96	1
TAP	65	96	5
TAP	65	192	0
TAP	65	192	7
TAP	65	288	0
TAP	65	288	7
BRK	66	0	2
BRK	66	0	5
STR	66	336	6
SCL	66	336	6	96	144	1
BRK	67	288	0
STR	68	0	7
SI_	68	0	7	96	72	3
STR	68	192	0
SI_	68	192	0	96	72	4
TAP	69	0	5
TAP	69	96	6
TAP	69	192	7
TAP	69	240	0
TAP	69	288	7
TAP	70	0	6
TAP	70	48	4
TAP	70	96	6
TAP	70	192	1
TAP	70	240	3
TAP	70	288	1
STR	71	0	4
SF_	71	0	4	96	168	0
HLD	72	0	1	96
HLD	72	96	3	96
HLD	72	192	4	96
TAP	72	288	6
HLD	73	0	6	96
HLD	73	96	4	96
HLD	73	192	3	96
TAP	73	288	1
TAP	74	0	4
TAP	74	0	5
TAP	74	96	3
TAP	74	96	6
TAP	74	192	2
TAP	74	192	3
TAP	74	288	1
STR	74	288	4
SLR	74	288	4	96	144	1
BRK	75	0	3
TAP	76	0	2
TAP	76	96	1
TAP	76	96	3
TAP	76	192	5
TAP	76	288	4
TAP	76	288	6
STR	77	0	1
SUR	77	0	1	96	96	6
STR	77	192	5
SUR	77	192	5	96	96	2
STR	78	0	0
SSL	78	0	0	96	144	4
STR	79	0	0
SI_	79	0	0	96	120	4
STR	79	0	7
SUR	79	0	7	96	120	3
HLD	80	0	1	192
HLD	80	192	3	192
HLD	81	0	4	192
HLD	81	192	6	192
BRK	82	0	1
STR	82	336	3
SI_	82	336	3	96	72	0
STR	82	336	4
SI_	82	336	4	96	72	7
BRK	83	192	1
BRK	83	192	6
TAP	83	288	3
TAP	83	288	4
HLD	84	0	2	576
TAP	84	192	3
TAP	85	0	4
TAP	85	192	5
HLD	86	0	5	576
TAP	86	192	4
TAP	86	288	4
TAP	87	0	3
TAP	87	192	2
TAP	88	0	2
TAP	88	96	1
TAP	88	96	3
TAP	88	192	5
TAP	88	288	4
TAP	88	288	6
TAP	89	0	1
TAP	89	0	3
TAP	89	96	4
TAP	89	96	6
TAP	89	192	0
TAP	89	192	7
TAP	89	288	1
BRK	90	0	2
BRK	90	0	6
TAP	90	288	2
TAP	90	336	2
TAP	91	48	4
TAP	91	48	5
TAP	91	144	0
TAP	91	144	7
TAP	91	192	0
TAP	91	192	7
BRK	91	288	2
BRK	91	288	5
TAP	92	0	3
TAP	92	0	4
TAP	92	96	0
TAP	92	96	1
TAP	92	192	3
TAP	92	192	4
TAP	92	288	6
TAP	92	288	7
STR	92	336	6
SUR	92	336	6	96	96	3
STR	92	336	7
SCR	92	336	7	96	96	2
TAP	93	192	4
TAP	93	288	1
TAP	93	288	6
TAP	94	0	3
TAP	94	0	4
TAP	94	96	6
TAP	94	96	7
TAP	94	192	3
TAP	94	192	4
TAP	94	288	0
TAP	94	288	1
STR	94	336	0
SCL	94	336	0	96	96	5
STR	94	336	1
SUL	94	336	1	96	96	4
TAP	95	192	3
BRK	95	288	1
BRK	95	288	6
HLD	96	0	0	96
TAP	96	96	2
HLD	96	192	7	96
TAP	96	288	5
TAP	97	0	1
TAP	97	0	3
TAP	97	96	4
TAP	97	96	6
TAP	97	192	0
TAP	97	192	7
BRK	97	288	1
TAP	98	0	7
TAP	98	48	7
TAP	98	96	1
TAP	98	144	1
TAP	98	192	5
TAP	98	240	5
TAP	98	288	3
TAP	98	336	3
TAP	99	48	4
TAP	99	48	5
TAP	99	144	0
TAP	99	144	7
TAP	99	192	0
TAP	99	192	7
BRK	99	288	3
BRK	99	288	4
TAP	100	0	2
TAP	100	0	4
TAP	100	96	6
TAP	100	96	7
TAP	100	192	3
TAP	100	192	5
TAP	100	288	0
TAP	100	288	1
STR	100	336	0
SUR	100	336	0	96	96	5
STR	100	336	1
SCR	100	336	1	96	96	4
TAP	101	192	6
TAP	101	288	0
TAP	101	288	7
TAP	102	0	3
TAP	102	0	5
TAP	102	96	0
TAP	102	96	1
TAP	102	192	2
TAP	102	192	4
TAP	102	288	6
TAP	102	288	7
STR	102	336	6
SCL	102	336	6	96	96	3
STR	102	336	7
SUL	102	336	7	96	96	2
TAP	103	192	1
BRK	103	288	2
BRK	103	288	6
STR	104	0	2
SLL	104	0	2	96	168	3
STR	104	0	5
SLR	104	0	5	96	168	4
TAP	105	0	1
TAP	105	0	3
TAP	105	96	4
TAP	105	96	6
TAP	105	192	0
TAP	105	192	7
BST	105	288	4
SCL	105	288	4	96	96	1
BST	105	288	5
SCR	105	288	5	96	96	0
TAP	106	192	2
TAP	106	192	7
HLD	106	336	5	96
TAP	107	48	2
TAP	107	144	0
TAP	107	144	7
TAP	107	192	0
TAP	107	192	7
BRK	107	288	2
BRK	107	288	5
TAP	108	0	6
TAP	108	0	7
TAP	108	96	1
TAP	108	96	5
TAP	108	192	3
TAP	108	192	4
TAP	108	288	3
TAP	108	288	4
TAP	109	0	0
TAP	109	0	1
TAP	109	96	2
TAP	109	96	6
TAP	109	192	3
TAP	109	192	4
TAP	109	288	3
TAP	109	288	4
BRK	110	0	1
BRK	110	0	6
HLD	110	336	0	144
HLD	110	336	7	144
STR	111	192	3
SI_	111	192	3	96	96	0
BRK	111	288	5

T_REC_TAP	368
T_REC_BRK	49
T_REC_XTP	0
T_REC_HLD	49
T_REC_XHO	0
T_REC_STR	51
T_REC_BST	4
T_REC_XST	0
T_REC_TTP	0
T_REC_THO	0
T_REC_SLD	55
T_REC_ALL	576
T_NUM_TAP	419
T_NUM_BRK	53
T_NUM_HLD	49
T_NUM_SLD	55
T_NUM_ALL	576
T_JUDGE_TAP	472
T_JUDGE_HLD	166
T_JUDGE_SLD	55
T_JUDGE_ALL	693
TTM_EACHPAIRS	184
TTM_SCR_TAP	209500
TTM_SCR_BRK	137800
TTM_SCR_HLD	49000
TTM_SCR_SLD	82500
TTM_SCR_ALL	478800
TTM_SCR_S	459300
TTM_SCR_SS	473500
TTM_RAT_ACV	10111

