VERSION	0.00.00	1.03.00
FES_MODE	0
BPM_DEF	185.000	185.000	185.000	185.000
MET_DEF	4	4
RESOLUTION	384
CLK_DEF	384
COMPATIBLE_CODE	MA2

BPM	0	0	185.000

TAP	2	0	2
TAP	2	96	2
TAP	2	192	2
TAP	2	192	3
TAP	2	288	3
TAP	2	288	4
TAP	3	0	5
TAP	3	96	5
TAP	3	192	4
TAP	3	192	5
TAP	3	288	3
TAP	3	288	4
BRK	4	0	2
BRK	4	0	5
TAP	5	0	3
TAP	5	0	4
TAP	5	96	2
TAP	5	96	5
TAP	5	192	1
TAP	5	192	6
BRK	5	288	0
BRK	5	288	7
TAP	6	0	1
TAP	6	96	0
TAP	6	192	0
TAP	6	192	1
TAP	7	0	6
TAP	7	96	7
TAP	7	192	6
TAP	7	192	7
TAP	8	0	5
TAP	8	96	6
TAP	8	192	7
TAP	8	288	0
TAP	9	0	0
TAP	9	0	7
TAP	9	96	0
TAP	9	96	7
BRK	9	192	1
BRK	9	192	6
TAP	10	0	5
TAP	10	96	4
TAP	10	192	4
TAP	10	192	5
TAP	11	0	2
TAP	11	96	3
TAP	11	192	2
TAP	11	192	3
TAP	12	0	4
TAP	12	96	5
TAP	12	192	6
TAP	12	288	7
TAP	13	0	0
TAP	13	96	1
TAP	13	192	2
TAP	13	288	3
HLD	14	0	3	96
HLD	14	0	4	96
HLD	14	192	2	96
HLD	14	192	5	96
TAP	15	0	3
TAP	15	0	4
TAP	15	96	3
TAP	15	96	4
BRK	15	192	2
BRK	15	192	5
HLD	16	0	2	192
TAP	16	192	3
TAP	17	0	2
TAP	17	96	3
TAP	17	192	2
TAP	17	192	3
TAP	18	0	1
TAP	18	96	0
TAP	18	192	7
TAP	18	288	6
TAP	19	0	5
TAP	19	96	4
TAP	19	192	4
TAP	19	192	5
TAP	20	0	5
TAP	20	96	5
TAP	20	192	4
TAP	20	192	6
TAP	21	0	2
TAP	21	96	2
TAP	21	192	1
TAP	21	192	3
TAP	22	0	1
TAP	22	96	0
TAP	22	192	7
TAP	22	288	6
TAP	23	0	0
TAP	23	0	7
TAP	23	96	0
TAP	23	96	7
TAP	23	192	1
TAP	23	192	6
BRK	23	288	1
BRK	23	288	6
HLD	24	0	5	192
TAP	24	192	4
TAP	25	0	5
TAP	25	96	4
TAP	25	192	4
TAP	25	192	5
TAP	26	0	6
TAP	26	96	7
TAP	26	192	0
TAP	26	288	1
TAP	27	0	2
TAP	27	96	3
TAP	27	192	2
TAP	27	192	3
TAP	28	0	2
TAP	28	96	2
TAP	28	192	1
TAP	28	192	3
TAP	29	0	5
TAP	29	96	5
TAP	29	192	4
TAP	29	192	6
TAP	30	0	6
TAP	30	96	7
TAP	30	192	0
TAP	30	288	1
TAP	31	0	0
TAP	31	0	7
TAP	31	96	1
TAP	31	96	6
TAP	31	192	2
TAP	31	192	5
BRK	31	288	3
BRK	31	288	4
HLD	32	0	2	192
TAP	32	192	3
TAP	33	0	2
TAP	33	96	3
TAP	33	192	4
HLD	34	0	5	192
TAP	34	192	4
TAP	35	0	5
TAP	35	96	4
TAP	35	192	3
TAP	36	0	2
TAP	36	96	3
TAP	36	192	3
TAP	36	192	4
TAP	37	0	5
TAP	37	96	4
TAP	37	192	3
TAP	37	192	4
HLD	38	0	3	96
HLD	38	0	4	96
BRK	38	192	2
BRK	38	192	5
STR	39	0	3
SI_	39	0	3	96	192	0
STR	39	0	4
SI_	39	0	4	96	192	7
HLD	40	0	1	384
HLD	41	0	0	384
HLD	42	0	7	384
HLD	43	0	6	192
TAP	43	192	7
TAP	44	0	5
TAP	44	96	5
TAP	44	192	4
TAP	44	192	5
TAP	45	0	2
TAP	45	96	2
TAP	45	192	2
TAP	45	192	3
BRK	46	0	2
BRK	46	0	5
STR	47	0	3
SI_	47	0	3	96	192	0
STR	47	0	4
SI_	47	0	4	96	192	7
TAP	48	0	1
TAP	48	96	0
TAP	48	192	0
TAP	48	192	1
TAP	48	288	0
TAP	48	288	7
TAP	49	0	6
TAP	49	96	7
TAP	49	192	6
TAP	49	192	7
TAP	50	0	6
TAP	50	96	7
TAP	50	192	6
TAP	50	192	7
TAP	50	288	0
TAP	50	288	7
TAP	51	0	1
TAP	51	96	0
TAP	51	192	0
TAP	51	192	1
STR	52	0	1
SCL	52	0	1	96	192	5
TAP	53	0	4
TAP	53	96	3
TAP	53	192	3
TAP	53	192	4
TAP	53	288	2
TAP	53	288	5
TAP	54	0	1
TAP	54	96	0
TAP	54	192	7
TAP	54	288	6
TAP	55	0	0
TAP	55	0	7
TAP	55	96	1
TAP	55	96	6
BRK	55	192	2
BRK	55	192	5
TAP	56	0	5
TAP	56	96	4
TAP	56	192	4
TAP	56	192	5
TAP	56	288	3
TAP	56	288	4
TAP	57	0	2
TAP	57	96	3
TAP	57	192	2
TAP	57	192	3
TAP	58	0	2
TAP	58	96	3
TAP	58	192	2
TAP	58	192	3
TAP	58	288	3
TAP	58	288	4
TAP	59	0	5
TAP	59	96	4
TAP	59	192	4
TAP	59	192	5
STR	60	0	5
SCL	60	0	5	96	192	1
TAP	61	0	0
TAP	61	96	7
TAP	61	192	0
TAP	61	192	7
TAP	61	288	1
TAP	61	288	6
TAP	62	0	5
TAP	62	96	4
TAP	62	192	3
TAP	62	288	2
TAP	63	0	3
TAP	63	0	4
TAP	63	96	2
TAP	63	96	5
BRK	63	192	1
BRK	63	192	6
TAP	64	0	6
TAP	64	96	6
TAP	64	192	6
TAP	64	192	7
TAP	64	288	0
TAP	64	288	7
TAP	65	0	1
TAP	65	96	1
TAP	65	192	0
TAP	65	192	1
TAP	65	288	0
TAP	65	288	7
BRK	66	0	1
BRK	66	0	6
TAP	67	0	0
TAP	67	0	7
TAP	67	96	0
TAP	67	96	7
BRK	67	192	1
BRK	67	192	6
TAP	68	0	2
TAP	68	96	1
TAP	68	192	0
TAP	68	288	7
TAP	69	0	6
TAP	69	96	7
TAP	69	192	6
TAP	69	192	7
TAP	70	0	5
TAP	70	96	6
TAP	70	192	7
TAP	70	288	0
TAP	71	0	1
TAP	71	96	0
TAP	71	192	0
TAP	71	192	1
STR	72	0	0
SI_	72	0	0	96	192	5
STR	72	0	1
SI_	72	0	1	96	192	4
STR	73	0	6
SI_	73	0	6	96	192	3
STR	73	0	7
SI_	73	0	7	96	192	2
TAP	74	0	2
TAP	74	96	3
TAP	74	192	5
TAP	74	288	4
TAP	75	0	3
TAP	75	0	4
TAP	75	96	3
TAP	75	96	4
BRK	75	192	2
BRK	75	192	5
TAP	76	0	1
TAP	76	96	0
TAP	76	192	7
TAP	76	288	6
TAP	77	0	5
TAP	77	96	4
TAP	77	192	3
TAP	77	192	4
TAP	78	0	5
TAP	78	96	4
TAP	78	192	3
TAP	78	288	2
TAP	79	0	1
TAP	79	96	0
TAP	79	192	0
TAP	79	192	7
HLD	80	0	1	192
TAP	80	192	0
HLD	81	0	6	192
TAP	81	192	7
STR	82	0	0
SI_	82	0	0	96	192	3
STR	82	0	7
SI_	82	0	7	96	192	4
TAP	83	0	3
TAP	83	0	4
TAP	83	96	3
TAP	83	96	4
BRK	83	192	2
BRK	83	192	5
HLD	84	0	2	384
HLD	85	0	3	384
HLD	86	0	4	384
HLD	87	0	5	192
TAP	87	192	4
HLD	88	0	3	288
HLD	88	0	4	288
TAP	89	0	4
TAP	89	0	5
TAP	89	96	2
TAP	89	96	3
TAP	89	192	3
TAP	89	192	4
BRK	90	0	2
BRK	90	0	5
TAP	91	0	1
TAP	91	96	0
TAP	91	192	7
BRK	91	288	0
BRK	91	288	7
TAP	92	0	1
TAP	92	96	0
TAP	92	96	1
TAP	92	192	6
TAP	92	288	6
TAP	92	288	7
TAP	93	0	1
TAP	93	96	0
TAP	93	192	2
TAP	93	192	7
TAP	94	0	6
TAP	94	96	6
TAP	94	96	7
TAP	94	192	1
TAP	94	288	0
TAP	94	288	1
TAP	95	0	6
TAP	95	96	7
TAP	95	192	0
TAP	95	192	5
STR	96	0	1
SCL	96	0	1	96	192	5
TAP	97	0	4
TAP	97	96	3
TAP	97	192	3
TAP	97	192	4
TAP	97	288	2
TAP	97	288	5
TAP	98	0	1
TAP	98	96	0
TAP	98	192	7
TAP	98	288	6
TAP	99	0	0
TAP	99	0	7
TAP	99	96	1
TAP	99	96	6
BRK	99	192	2
BRK	99	192	5
TAP	100	0	5
TAP	100	96	4
TAP	100	96	5
TAP	100	192	2
TAP	100	288	2
TAP	100	288	3
TAP	101	0	5
TAP	101	96	4
TAP	101	192	3
TAP	101	192	6
TAP	102	0	2
TAP	102	96	2
TAP	102	96	3
TAP	102	192	5
TAP	102	288	4
TAP	102	288	5
TAP	103	0	2
TAP	103	96	3
TAP	103	192	1
TAP	103	192	4
STR	104	0	5
SCL	104	0	5	96	192	1
TAP	105	0	0
TAP	105	96	7
TAP	105	192	0
TAP	105	192	7
TAP	105	288	1
TAP	105	288	6
TAP	106	0	5
TAP	106	96	4
TAP	106	192	3
TAP	106	288	2
TAP	107	0	3
TAP	107	0	4
TAP	107	96	2
TAP	107	96	5
BRK	107	192	1
BRK	107	192	6
TAP	108	0	6
TAP	108	96	6
TAP	108	192	6
TAP	108	192	7
TAP	108	288	0
TAP	108	288	7
TAP	109	0	1
TAP	109	96	1
TAP	109	192	0
TAP	109	192	1
TAP	109	288	0
TAP	109	288	7
BRK	110	0	1
BRK	110	0	6
HLD	111	0	0	192
HLD	111	0	7	192
BRK	111	288	0
BRK	111	288	7

T_REC_TAP	361
T_REC_BRK	40
T_REC_XTP	0
T_REC_HLD	24
T_REC_XHO	0
T_REC_STR	14
T_REC_BST	0
T_REC_XST	0
T_REC_TTP	0
T_REC_THO	0
T_REC_SLD	14
T_REC_ALL	453
T_NUM_TAP	375
T_NUM_BRK	40
T_NUM_HLD	24
T_NUM_SLD	14
T_NUM_ALL	453
T_JUDGE_TAP	415
T_JUDGE_HLD	112
T_JUDGE_SLD	14
T_JUDGE_ALL	541
TTM_EACHPAIRS	124
TTM_SCR_TAP	187500
TTM_SCR_BRK	104000
TTM_SCR_HLD	24000
TTM_SCR_SLD	21000
TTM_SCR_ALL	336500
TTM_SCR_S	322550
TTM_SCR_SS	332500
TTM_RAT_ACV	10120

