VERSION	0.00.00	1.03.00
FES_MODE	0
BPM_DEF	185.000	185.000	185.000	185.000
MET_DEF	4	4
RESOLUTION	384
CLK_DEF	384
COMPATIBLE_CODE	MA2

BPM	0	0	185.000

TAP	2	0	0
TAP	2	96	0
TAP	2	192	0
TAP	3	0	7
TAP	3	96	7
TAP	3	192	7
HLD	4	0	0	336
HLD	4	0	7	336
TAP	6	0	0
TAP	6	192	0
TAP	7	0	1
TAP	7	96	1
TAP	7	192	1
TAP	8	0	2
TAP	8	192	2
TAP	9	0	3
TAP	9	96	4
TAP	9	192	3
TAP	10	0	4
TAP	10	192	4
TAP	11	0	5
TAP	11	96	5
TAP	11	192	5
TAP	12	0	6
TAP	12	192	6
TAP	13	0	0
TAP	13	0	7
TAP	13	192	0
TAP	13	192	7
HLD	14	0	0	192
HLD	14	0	7	192
TAP	15	0	0
TAP	15	0	7
TAP	15	96	0
TAP	15	96	7
TAP	15	192	1
TAP	15	192	6
HLD	16	0	0	192
HLD	16	0	7	192
TAP	17	0	0
TAP	17	96	7
TAP	17	192	0
TAP	18	0	1
TAP	18	96	1
TAP	18	192	1
TAP	19	0	2
TAP	19	96	2
TAP	19	192	2
TAP	19	192	3
TAP	20	0	4
TAP	20	96	4
TAP	20	192	4
TAP	21	0	5
TAP	21	96	5
TAP	21	192	5
TAP	22	0	6
TAP	22	96	6
TAP	22	192	6
TAP	23	0	7
TAP	23	96	7
TAP	23	192	0
TAP	23	192	7
HLD	24	0	0	192
HLD	24	0	7	192
TAP	25	0	7
TAP	25	96	0
TAP	25	192	7
TAP	26	0	6
TAP	26	96	6
TAP	26	192	6
TAP	27	0	5
TAP	27	96	5
TAP	27	192	4
TAP	27	192	5
TAP	28	0	3
TAP	28	96	3
TAP	28	192	3
TAP	29	0	2
TAP	29	96	2
TAP	29	192	2
TAP	30	0	1
TAP	30	96	1
TAP	30	192	1
TAP	31	0	0
TAP	31	96	0
BRK	31	192	0
BRK	31	192	7
STR	32	0	0
SI_	32	0	0	96	288	3
STR	34	0	7
SI_	34	0	7	96	288	4
TAP	36	0	0
TAP	36	96	0
TAP	36	192	0
TAP	37	0	1
TAP	37	96	1
TAP	37	192	1
HLD	38	0	2	384
HLD	38	0	3	384
TAP	40	0	3
TAP	41	0	3
TAP	42	0	4
TAP	43	0	4
HLD	44	0	2	384
HLD	44	0	5	384
TAP	46	0	2
TAP	46	0	5
TAP	46	192	2
TAP	46	192	5
TAP	47	0	3
TAP	47	0	4
TAP	47	96	3
TAP	47	96	4
BRK	47	192	2
BRK	47	192	5
TAP	48	0	2
TAP	48	0	3
TAP	48	96	2
TAP	48	96	3
TAP	48	192	2
TAP	48	192	3
TAP	49	0	4
TAP	49	0	5
TAP	49	96	4
TAP	49	96	5
TAP	49	192	4
TAP	49	192	5
TAP	50	0	3
TAP	50	96	3
TAP	50	192	2
TAP	50	288	2
HLD	51	0	1	192
TAP	52	0	0
TAP	52	96	0
TAP	52	192	0
TAP	53	0	7
TAP	53	96	7
TAP	53	192	7
TAP	54	0	6
TAP	54	96	6
TAP	54	192	5
TAP	54	288	5
TAP	55	0	3
TAP	55	0	4
TAP	55	96	3
TAP	55	96	4
TAP	55	192	2
TAP	55	192	5
TAP	56	0	4
TAP	56	0	5
TAP	56	96	4
TAP	56	96	5
TAP	56	192	4
TAP	56	192	5
TAP	57	0	2
TAP	57	0	3
TAP	57	96	2
TAP	57	96	3
TAP	57	192	2
TAP	57	192	3
TAP	58	0	4
TAP	58	96	4
TAP	58	192	5
TAP	58	288	5
HLD	59	0	6	192
TAP	60	0	7
TAP	60	96	7
TAP	60	192	7
TAP	61	0	0
TAP	61	96	0
TAP	61	192	0
TAP	62	0	1
TAP	62	96	1
TAP	62	192	2
TAP	62	288	2
TAP	63	0	3
TAP	63	0	4
TAP	63	96	3
TAP	63	96	4
TAP	63	192	2
TAP	63	192	5
TAP	64	0	3
TAP	64	96	3
TAP	64	192	3
TAP	65	0	4
TAP	65	96	4
TAP	65	192	4
STR	66	0	3
SI_	66	0	3	96	288	0
HLD	68	0	7	192
TAP	69	0	6
TAP	69	192	6
TAP	70	0	5
TAP	70	192	5
TAP	71	0	4
TAP	71	96	3
TAP	71	192	4
HLD	72	0	3	192
TAP	73	0	2
TAP	73	192	2
TAP	74	0	1
TAP	74	192	1
TAP	75	0	0
TAP	75	96	7
TAP	75	192	0
STR	76	0	0
SI_	76	0	0	96	288	4
STR	78	0	7
SI_	78	0	7	96	288	3
STR	80	0	1
SI_	80	0	1	96	288	4
TAP	82	0	0
TAP	82	0	7
TAP	84	0	7
TAP	84	192	7
TAP	85	0	7
TAP	86	0	6
TAP	86	192	6
TAP	87	0	6
TAP	88	0	5
TAP	88	192	5
TAP	89	0	5
TAP	90	0	4
TAP	90	192	4
TAP	91	0	3
TAP	91	0	4
TAP	91	96	3
TAP	91	96	4
BRK	91	192	2
BRK	91	192	5
TAP	92	0	2
TAP	92	0	3
TAP	92	96	2
TAP	92	96	3
TAP	92	192	2
TAP	92	192	3
TAP	93	0	4
TAP	93	0	5
TAP	93	96	4
TAP	93	96	5
TAP	93	192	4
TAP	93	192	5
TAP	94	0	3
TAP	94	96	3
TAP	94	192	2
TAP	94	288	2
TAP	95	0	1
TAP	95	96	1
TAP	95	192	0
TAP	95	192	7
TAP	96	0	0
TAP	96	96	0
TAP	96	192	0
TAP	97	0	7
TAP	97	96	7
TAP	97	192	7
TAP	98	0	6
TAP	98	96	6
TAP	98	192	5
TAP	98	288	5
TAP	99	0	3
TAP	99	0	4
TAP	99	96	3
TAP	99	96	4
TAP	99	192	2
TAP	99	192	5
TAP	100	0	4
TAP	100	0	5
TAP	100	96	4
TAP	100	96	5
TAP	100	192	4
TAP	100	192	5
TAP	101	0	2
TAP	101	0	3
TAP	101	96	2
TAP	101	96	3
TAP	101	192	2
TAP	101	192	3
TAP	102	0	4
TAP	102	96	4
TAP	102	192	5
TAP	102	288	5
TAP	103	0	6
TAP	103	96	6
TAP	103	192	0
TAP	103	192	7
TAP	104	0	7
TAP	104	96	7
TAP	104	192	7
TAP	105	0	0
TAP	105	96	0
TAP	105	192	0
TAP	106	0	1
TAP	106	96	1
TAP	106	192	2
TAP	106	288	2
TAP	107	0	3
TAP	107	0	4
TAP	107	96	3
TAP	107	96	4
TAP	107	192	2
TAP	107	192	5
TAP	108	0	4
TAP	108	96	4
TAP	108	192	4
TAP	109	0	3
TAP	109	96	3
TAP	109	192	3
TAP	110	0	3
TAP	110	0	4
TAP	110	96	3
TAP	110	96	4
HLD	110	192	3	336
HLD	110	192	4	336
BRK	111	288	2
BRK	111	288	5

T_REC_TAP	278
T_REC_BRK	8
T_REC_XTP	0
T_REC_HLD	18
T_REC_XHO	0
T_REC_STR	6
T_REC_BST	0
T_REC_XST	0
T_REC_TTP	0
T_REC_THO	0
T_REC_SLD	6
T_REC_ALL	316
T_NUM_TAP	284
T_NUM_BRK	8
T_NUM_HLD	18
T_NUM_SLD	6
T_NUM_ALL	316
T_JUDGE_TAP	292
T_JUDGE_HLD	100
T_JUDGE_SLD	6
T_JUDGE_ALL	398
TTM_EACHPAIRS	66
TTM_SCR_TAP	142000
TTM_SCR_BRK	20800
TTM_SCR_HLD	18000
TTM_SCR_SLD	9000
TTM_SCR_ALL	189800
TTM_SCR_S	183350
TTM_SCR_SS	189000
TTM_RAT_ACV	10042

