VERSION	0.00.00	1.03.00
FES_MODE	0
BPM_DEF	200.000	200.000	200.000	200.000
MET_DEF	4	4
RESOLUTION	384
CLK_DEF	384
COMPATIBLE_CODE	MA2

BPM	0	0	200.000

TAP	1	0	5
TAP	1	48	4
TAP	1	96	3
TAP	1	144	2
TAP	1	240	4
TAP	1	336	5
TAP	2	0	4
TAP	2	48	3
STR	2	96	2
SCR	2	96	2	96	96	5
TAP	3	0	5
TAP	3	48	4
TAP	3	96	3
TAP	3	144	2
TAP	3	240	4
TAP	3	336	5
TAP	4	0	4
TAP	4	48	3
TAP	4	96	2
TAP	4	192	3
TAP	4	192	4
STR	5	0	1
SI_	5	0	1	96	48	3
TAP	5	0	4
TAP	5	96	1
TAP	5	96	5
STR	5	192	1
SI_	5	192	1	96	48	3
TAP	5	192	4
TAP	5	288	1
TAP	5	288	6
STR	6	0	1
SI_	6	0	1	96	48	3
TAP	6	0	7
TAP	6	96	1
TAP	6	96	4
TAP	6	144	4
STR	6	192	1
SI_	6	192	1	96	48	3
TAP	6	192	4
TAP	6	288	1
TAP	6	288	6
TAP	7	0	3
STR	7	0	6
SI_	7	0	6	96	48	4
TAP	7	96	2
TAP	7	96	6
TAP	7	192	3
STR	7	192	6
SI_	7	192	6	96	48	4
TAP	7	288	1
TAP	7	288	6
TAP	8	0	1
TAP	8	0	6
TAP	8	144	3
TAP	8	168	4
TAP	8	192	3
TAP	8	216	4
TAP	8	240	3
TAP	8	264	4
TAP	8	288	3
STR	9	0	1
SI_	9	0	1	96	48	3
TAP	9	0	5
TAP	9	48	1
STR	9	96	4
SI_	9	96	4	96	48	6
TAP	9	144	4
STR	9	192	1
SI_	9	192	1	96	48	3
TAP	9	240	1
STR	9	288	4
SI_	9	288	4	96	48	6
TAP	9	336	4
STR	10	0	1
SI_	10	0	1	96	48	3
TAP	10	48	1
STR	10	96	4
SI_	10	96	4	96	48	6
TAP	10	144	4
TAP	10	192	1
TAP	10	240	1
TAP	10	288	1
TAP	10	288	4
TAP	11	0	2
STR	11	0	6
SI_	11	0	6	96	48	4
TAP	11	48	6
STR	11	96	3
SI_	11	96	3	96	48	1
TAP	11	144	3
STR	11	192	6
SI_	11	192	6	96	48	4
TAP	11	240	6
STR	11	288	3
SI_	11	288	3	96	48	1
TAP	11	336	3
TAP	12	0	6
TAP	12	48	6
TAP	12	96	3
TAP	12	144	3
TAP	12	192	4
TAP	12	240	4
TAP	12	288	1
TAP	12	288	5
STR	13	0	0
SI_	13	0	0	96	48	2
TAP	13	0	6
TAP	13	48	0
STR	13	96	5
SI_	13	96	5	96	48	7
TAP	13	144	5
STR	13	192	0
SI_	13	192	0	96	48	2
TAP	13	240	0
STR	13	288	5
SI_	13	288	5	96	48	7
TAP	13	336	5
STR	14	0	0
SI_	14	0	0	96	48	2
TAP	14	48	0
STR	14	96	5
SI_	14	96	5	96	48	7
TAP	14	144	5
TAP	14	192	0
TAP	14	240	0
TAP	14	288	0
TAP	14	288	5
TAP	15	0	1
STR	15	0	7
SI_	15	0	7	96	48	5
TAP	15	48	7
STR	15	96	2
SI_	15	96	2	96	48	0
TAP	15	144	2
TAP	15	192	7
TAP	15	240	7
TAP	15	288	2
TAP	15	288	7
TAP	16	0	0
TAP	16	0	7
TAP	16	48	0
TAP	16	48	7
TAP	16	96	1
TAP	16	96	6
TAP	16	144	2
TAP	16	144	5
TAP	16	192	3
TAP	16	192	4
HLD	17	0	5	240
TAP	17	48	3
TAP	17	96	3
TAP	17	192	4
TAP	17	240	4
TAP	17	336	3
TAP	17	336	6
TAP	18	48	2
TAP	18	48	5
TAP	18	144	1
TAP	18	144	4
TAP	18	192	0
STR	18	240	0
SI_	18	240	0	96	96	4
HLD	18	336	7	240
TAP	19	336	3
TAP	20	0	3
TAP	20	48	4
TAP	20	96	4
TAP	20	192	2
TAP	20	192	5
TAP	20	288	3
TAP	20	288	4
HLD	21	0	2	240
TAP	21	48	4
TAP	21	96	4
TAP	21	192	3
TAP	21	240	3
TAP	21	336	1
TAP	21	336	4
TAP	22	48	2
TAP	22	48	5
TAP	22	144	3
TAP	22	144	6
STR	22	192	7
SI_	22	192	7	96	96	4
STR	22	288	0
SCR	22	288	0	96	192	7
TAP	23	336	4
TAP	24	0	4
TAP	24	48	3
TAP	24	96	3
TAP	24	192	2
TAP	24	192	5
TAP	24	288	3
TAP	24	288	4
TAP	25	0	4
TAP	25	48	4
TAP	25	96	2
TAP	25	96	5
TAP	25	168	2
TAP	25	168	5
TAP	25	192	3
TAP	25	288	2
TAP	25	288	5
TAP	25	336	4
TAP	26	48	4
TAP	26	96	2
TAP	26	96	5
TAP	26	192	3
TAP	26	192	4
TAP	26	288	2
TAP	26	288	5
TAP	27	0	4
TAP	27	48	4
TAP	27	96	3
TAP	27	96	6
TAP	27	168	3
TAP	27	168	6
TAP	27	192	5
TAP	27	288	3
TAP	27	288	6
TAP	27	336	4
TAP	28	48	4
TAP	28	96	3
TAP	28	96	6
TAP	28	192	4
TAP	28	192	5
TAP	28	288	3
TAP	28	288	6
TAP	29	0	3
TAP	29	48	3
TAP	29	96	1
TAP	29	96	4
TAP	29	168	1
TAP	29	168	4
TAP	29	192	2
TAP	29	288	1
TAP	29	288	4
TAP	29	336	3
TAP	30	48	3
TAP	30	96	1
TAP	30	96	4
TAP	30	192	2
TAP	30	192	3
TAP	30	288	1
TAP	30	288	4
TAP	31	0	3
TAP	31	48	3
TAP	31	96	2
TAP	31	96	5
TAP	31	168	2
TAP	31	168	5
TAP	31	192	4
TAP	31	288	2
STR	31	288	5
SCR	31	288	5	96	96	0
TAP	32	0	3
STR	32	96	2
SCR	32	96	2	96	96	5
TAP	32	192	7
TAP	32	288	7
STR	33	0	6
SCL	33	0	6	96	96	3
STR	33	144	1
SCL	33	144	1	96	96	6
STR	33	288	4
SCL	33	288	4	96	96	1
TAP	34	96	0
TAP	34	192	1
TAP	34	288	2
STR	35	0	1
SCR	35	0	1	96	96	4
STR	35	144	6
SCR	35	144	6	96	96	1
STR	35	288	3
SCR	35	288	3	96	96	6
TAP	36	96	7
TAP	36	192	6
TAP	36	288	5
STR	37	0	4
SI_	37	0	4	96	48	7
STR	37	96	0
SI_	37	96	0	96	48	3
STR	37	192	5
SI_	37	192	5	96	48	2
STR	37	288	1
SI_	37	288	1	96	48	6
STR	38	0	7
SI_	38	0	7	96	48	4
STR	38	96	3
SI_	38	96	3	96	48	0
STR	38	192	5
SI_	38	192	5	96	48	2
TAP	38	288	0
TAP	39	0	1
TAP	39	0	6
HLD	39	48	1	96
HLD	39	48	6	96
TAP	39	288	3
TAP	39	288	4
TAP	39	336	3
TAP	39	336	4
TAP	40	0	2
TAP	40	0	5
TAP	40	48	2
TAP	40	48	5
STR	40	192	3
SI_	40	192	3	96	48	0
TAP	41	0	0
TAP	41	24	7
TAP	41	48	0
TAP	41	72	7
TAP	41	96	0
TAP	41	120	7
TAP	41	144	0
TAP	41	168	7
TAP	41	192	1
TAP	41	192	6
STR	41	240	1
SI_	41	240	1	96	48	4
TAP	41	240	6
STR	41	336	7
SI_	41	336	7	96	48	3
STR	42	48	1
SI_	42	48	1	96	48	6
STR	42	144	5
SI_	42	144	5	96	48	1
STR	42	240	3
SI_	42	240	3	96	48	0
TAP	42	336	7
STR	43	0	7
SCL	43	0	7	96	96	2
TAP	43	96	0
TAP	43	144	0
TAP	43	192	0
TAP	43	240	0
TAP	43	288	1
TAP	43	288	3
TAP	43	336	4
TAP	44	0	3
TAP	44	0	5
TAP	44	48	2
TAP	44	96	1
TAP	44	96	3
TAP	44	144	0
STR	44	192	0
SI_	44	192	0	96	48	4
STR	44	192	7
SI_	44	192	7	96	48	3
TAP	44	288	0
TAP	44	288	7
TAP	45	0	2
TAP	45	0	5
TAP	45	48	1
TAP	45	48	6
TAP	45	96	2
TAP	45	96	5
TAP	45	144	1
TAP	45	144	6
TAP	45	192	2
TAP	45	192	5
TAP	45	240	1
TAP	45	240	6
TAP	45	288	2
TAP	45	288	5
STR	45	336	3
SCL	45	336	3	96	48	0
TAP	45	336	4
TAP	46	48	7
STR	46	96	7
SCL	46	96	7	96	48	4
TAP	46	192	3
STR	46	240	3
SCL	46	240	3	96	144	6
TAP	46	336	5
TAP	47	48	4
TAP	47	96	4
TAP	47	192	3
TAP	47	192	5
TAP	47	288	1
TAP	47	288	4
TAP	47	336	1
TAP	47	336	4
TAP	48	0	2
TAP	48	48	3
TAP	48	96	4
TAP	48	144	5
STR	48	192	1
SI_	48	192	1	96	48	4
STR	48	192	6
SI_	48	192	6	96	48	3
TAP	48	288	1
TAP	48	288	6
TAP	49	0	0
TAP	49	24	7
TAP	49	48	0
TAP	49	72	7
TAP	49	96	0
TAP	49	120	7
TAP	49	144	0
TAP	49	168	7
TAP	49	192	1
TAP	49	192	6
TAP	49	240	1
STR	49	240	6
SI_	49	240	6	96	48	3
STR	49	336	0
SI_	49	336	0	96	48	4
STR	50	48	6
SI_	50	48	6	96	48	1
STR	50	144	2
SI_	50	144	2	96	48	6
STR	50	240	4
SI_	50	240	4	96	48	7
TAP	50	336	0
STR	51	0	0
SCR	51	0	0	96	96	5
TAP	51	96	7
TAP	51	144	7
TAP	51	192	7
TAP	51	240	7
TAP	51	288	4
TAP	51	288	6
TAP	51	336	3
TAP	52	0	2
TAP	52	0	4
TAP	52	48	5
TAP	52	96	4
TAP	52	96	6
TAP	52	144	7
STR	52	192	0
SI_	52	192	0	96	48	4
STR	52	192	7
SI_	52	192	7	96	48	3
TAP	52	288	0
TAP	52	288	7
TAP	53	0	2
TAP	53	0	5
TAP	53	48	1
TAP	53	48	6
TAP	53	96	2
TAP	53	96	5
TAP	53	144	1
TAP	53	144	6
TAP	53	192	2
TAP	53	192	5
STR	53	240	3
SCL	53	240	3	96	48	0
TAP	53	240	4
STR	53	336	7
SCL	53	336	7	96	48	4
STR	54	48	0
SI_	54	48	0	96	48	3
TAP	54	144	4
TAP	54	192	4
STR	54	240	3
SCL	54	240	3	96	144	6
TAP	54	336	5
TAP	55	48	4
TAP	55	96	4
TAP	55	192	3
TAP	55	192	5
TAP	55	288	1
TAP	55	288	4
TAP	55	336	1
TAP	55	336	4
TAP	56	0	2
TAP	56	48	3
TAP	56	96	4
TAP	56	144	5
TAP	56	192	1
TAP	56	192	6
TAP	56	288	3
TAP	56	288	4
STR	57	0	1
SCR	57	0	1	96	48	4
TAP	57	96	6
STR	57	144	6
SCR	57	144	6	96	48	1
TAP	57	240	2
HLD	57	336	3	144
STR	58	96	7
SSR	58	96	7	96	96	3
TAP	58	192	2
TAP	58	288	2
BRK	59	0	0
BRK	59	0	4
BRK	59	48	2
BRK	59	48	3
BRK	59	144	0
BRK	59	144	4
BRK	59	192	2
BRK	59	192	3
BRK	59	288	0
BRK	59	288	4
BRK	59	336	2
BST	59	336	3
SCR	59	336	3	96	240	0
TAP	61	0	5
TAP	61	48	4
TAP	61	96	3
TAP	61	144	2
TAP	61	240	4
TAP	61	336	5
TAP	62	0	4
TAP	62	48	3
TAP	62	96	2
TAP	62	192	2
TAP	62	192	4
TAP	62	264	3
TAP	62	264	5
TAP	62	336	2
TAP	62	336	4
TAP	63	0	5
TAP	63	48	4
TAP	63	96	3
TAP	63	144	2
TAP	63	240	4
TAP	63	336	5
TAP	64	0	4
TAP	64	48	3
TAP	64	96	2
TAP	64	192	2
TAP	64	192	5
TAP	64	288	2
TAP	64	288	5
TAP	65	0	3
TAP	65	0	4
TAP	65	48	5
TAP	65	96	4
TAP	65	144	5
TAP	65	192	2
TAP	65	192	4
TAP	65	240	5
TAP	65	288	6
TAP	65	336	5
TAP	66	0	3
TAP	66	0	4
TAP	66	48	5
TAP	66	96	4
TAP	66	144	5
TAP	66	192	2
TAP	66	192	4
TAP	66	240	5
TAP	66	288	6
TAP	66	336	5
TAP	67	0	3
TAP	67	0	4
TAP	67	48	5
TAP	67	96	4
TAP	67	144	5
TAP	67	192	2
TAP	67	192	4
TAP	67	240	5
TAP	67	288	6
TAP	67	336	5
TAP	68	0	3
TAP	68	0	4
TAP	68	48	5
TAP	68	96	4
TAP	68	144	5
TAP	68	192	3
TAP	68	216	4
TAP	68	240	3
TAP	68	264	4
TAP	68	288	3
TAP	69	0	3
TAP	69	0	6
HLD	69	48	3	240
HLD	69	48	6	240
TAP	70	0	1
TAP	70	0	4
HLD	70	48	1	240
HLD	70	48	4	240
TAP	71	0	2
TAP	71	0	5
TAP	71	48	2
TAP	71	48	5
TAP	71	192	0
TAP	71	192	7
STR	71	288	3
SCL	71	288	3	96	96	0
STR	71	288	4
SCR	71	288	4	96	96	7
HLD	72	192	1	864
HLD	72	192	6	864
TAP	75	0	0
TAP	75	24	7
TAP	75	48	0
TAP	75	72	7
TAP	75	96	0
TAP	75	120	7
TAP	75	144	0
TAP	75	168	7
TAP	75	192	1
TAP	75	192	6
STR	75	240	1
SI_	75	240	1	96	48	5
TAP	75	240	6
STR	75	336	7
SI_	75	336	7	96	48	4
STR	76	48	2
SI_	76	48	2	96	48	6
STR	76	144	4
SI_	76	144	4	96	48	7
STR	76	240	0
SI_	76	240	0	96	48	3
TAP	76	336	7
STR	77	0	7
SCL	77	0	7	96	96	2
TAP	77	96	0
TAP	77	144	0
TAP	77	192	0
TAP	77	240	0
TAP	77	288	1
TAP	77	288	4
TAP	77	336	5
TAP	78	0	3
TAP	78	0	6
TAP	78	48	2
TAP	78	96	1
TAP	78	96	4
TAP	78	144	0
STR	78	192	0
SI_	78	192	0	96	48	4
STR	78	192	7
SI_	78	192	7	96	48	3
TAP	78	288	0
TAP	78	288	7
TAP	79	0	2
TAP	79	0	5
TAP	79	48	1
TAP	79	48	6
TAP	79	96	2
TAP	79	96	5
TAP	79	144	1
TAP	79	144	6
TAP	79	192	2
TAP	79	192	5
TAP	79	240	1
TAP	79	240	6
TAP	79	288	2
TAP	79	288	5
STR	79	336	3
SCL	79	336	3	96	48	0
TAP	79	336	4
TAP	80	48	7
STR	80	96	7
SCL	80	96	7	96	48	4
TAP	80	192	3
STR	80	240	3
SCL	80	240	3	96	144	6
TAP	80	336	5
TAP	81	48	4
TAP	81	96	4
TAP	81	192	3
TAP	81	192	5
TAP	81	288	1
TAP	81	288	4
TAP	81	336	1
TAP	81	336	4
TAP	82	0	5
TAP	82	48	6
TAP	82	96	7
TAP	82	144	0
STR	82	192	1
SI_	82	192	1	96	48	4
STR	82	192	6
SI_	82	192	6	96	48	3
TAP	82	288	1
TAP	82	288	6
TAP	83	0	0
TAP	83	24	7
TAP	83	48	0
TAP	83	72	7
TAP	83	96	0
TAP	83	120	7
TAP	83	144	0
TAP	83	168	7
TAP	83	192	1
TAP	83	192	6
TAP	83	240	1
STR	83	240	6
SI_	83	240	6	96	48	3
STR	83	336	0
SI_	83	336	0	96	48	4
STR	84	48	6
SI_	84	48	6	96	48	1
STR	84	144	2
SI_	84	144	2	96	48	6
STR	84	240	4
SI_	84	240	4	96	48	7
TAP	84	336	0
STR	85	0	0
SCR	85	0	0	96	96	5
TAP	85	96	7
TAP	85	144	7
TAP	85	192	7
TAP	85	240	7
TAP	85	288	3
TAP	85	288	6
TAP	85	336	2
TAP	86	0	1
TAP	86	0	4
TAP	86	48	5
TAP	86	96	3
TAP	86	96	6
TAP	86	144	7
STR	86	192	0
SI_	86	192	0	96	48	4
STR	86	192	7
SI_	86	192	7	96	48	3
TAP	86	288	0
TAP	86	288	7
TAP	87	0	2
TAP	87	0	5
TAP	87	48	1
TAP	87	48	6
TAP	87	96	2
TAP	87	96	5
TAP	87	144	1
TAP	87	144	6
TAP	87	192	2
TAP	87	192	5
STR	87	240	3
SCL	87	240	3	96	48	0
TAP	87	240	4
STR	87	336	7
SCL	87	336	7	96	48	4
STR	88	48	0
SI_	88	48	0	96	48	3
TAP	88	144	4
STR	88	192	4
SI_	88	192	4	96	48	7
STR	88	288	3
SCL	88	288	3	96	144	6
TAP	89	0	4
TAP	89	96	4
TAP	89	192	5
TAP	89	240	4
TAP	89	288	3
TAP	89	336	2
TAP	89	336	4
TAP	90	48	4
TAP	90	48	5
TAP	90	96	3
STR	90	96	6
SI_	90	96	6	96	48	2
STR	90	192	0
SI_	90	192	0	96	48	4
TAP	90	288	7
TAP	91	0	1
TAP	91	48	2
TAP	91	96	3
TAP	91	144	6
TAP	91	192	5
TAP	91	240	4
STR	91	288	2
SI_	91	288	2	96	48	6
TAP	91	288	5
STR	92	0	7
SI_	92	0	7	96	48	3
STR	92	96	1
SI_	92	96	1	96	48	4
TAP	92	192	7
TAP	92	240	7
TAP	92	288	1
TAP	92	288	6
TAP	93	0	6
TAP	93	48	4
TAP	93	96	5
TAP	93	144	1
TAP	93	192	3
TAP	93	240	2
TAP	93	288	3
TAP	93	336	1
TAP	93	336	4
TAP	94	48	5
TAP	94	96	4
TAP	94	96	6
TAP	94	192	1
TAP	94	240	0
TAP	94	288	7
TAP	94	336	1
TAP	94	336	6
TAP	95	48	2
TAP	95	48	4
TAP	95	96	2
TAP	95	96	4
TAP	95	192	3
TAP	95	192	6
TAP	95	288	1
TAP	95	288	4
TAP	95	336	1
TAP	95	336	4
TAP	96	48	3
TAP	96	72	4
TAP	96	96	3
TAP	96	144	5
TAP	96	192	2
TAP	96	240	2
TAP	96	288	1
TAP	96	288	6
TAP	97	0	0
TAP	97	24	7
TAP	97	48	0
TAP	97	72	7
TAP	97	96	1
TAP	97	120	6
TAP	97	144	1
TAP	97	168	6
TAP	97	192	2
TAP	97	192	5
TAP	97	240	1
TAP	97	240	6
STR	97	288	7
SI_	97	288	7	96	48	3
TAP	97	336	7
STR	98	0	0
SI_	98	0	0	96	48	4
TAP	98	48	0
STR	98	96	6
SI_	98	96	6	96	48	1
TAP	98	144	6
STR	98	192	2
SI_	98	192	2	96	48	6
TAP	98	240	2
STR	98	288	4
SI_	98	288	4	96	48	7
TAP	98	336	4
STR	99	0	0
SCR	99	0	0	96	96	5
TAP	99	48	0
TAP	99	96	7
TAP	99	144	7
TAP	99	192	7
TAP	99	240	7
TAP	99	288	2
TAP	99	288	6
TAP	99	336	1
TAP	100	0	0
TAP	100	0	4
TAP	100	48	5
TAP	100	96	2
TAP	100	96	6
TAP	100	144	7
STR	100	192	0
SI_	100	192	0	96	48	4
STR	100	192	7
SI_	100	192	7	96	48	3
TAP	100	288	0
TAP	100	288	7
TAP	101	0	2
TAP	101	0	5
TAP	101	48	1
TAP	101	48	6
TAP	101	96	2
TAP	101	96	5
TAP	101	144	1
TAP	101	144	6
TAP	101	192	2
TAP	101	192	5
STR	101	240	3
SCL	101	240	3	96	48	0
TAP	101	240	4
STR	101	336	7
SCL	101	336	7	96	48	4
STR	102	48	0
SI_	102	48	0	96	48	3
TAP	102	144	4
TAP	102	192	4
STR	102	240	3
SCL	102	240	3	96	144	6
TAP	102	336	5
TAP	103	48	4
TAP	103	96	4
TAP	103	192	3
TAP	103	192	5
TAP	103	288	1
TAP	103	288	4
TAP	103	336	1
TAP	103	336	4
TAP	104	0	2
TAP	104	48	3
TAP	104	96	4
TAP	104	144	5
TAP	104	192	1
TAP	104	192	6
TAP	104	288	3
TAP	104	288	4
STR	105	0	1
SCR	105	0	1	96	48	4
TAP	105	96	6
STR	105	144	6
SCR	105	144	6	96	48	1
TAP	105	240	2
HLD	105	336	3	144
STR	106	96	7
SSR	106	96	7	96	96	3
TAP	106	192	2
TAP	106	288	2
BRK	107	0	0
BRK	107	0	4
BRK	107	48	2
BRK	107	48	3
BRK	107	144	0
BRK	107	144	4
BRK	107	192	2
BRK	107	192	3
BRK	107	288	0
BRK	107	288	4
HLD	107	336	2	624
HLD	107	336	3	528
TAP	110	0	5
TAP	110	48	4
TAP	110	96	3
TAP	110	144	2
TAP	110	240	4
TAP	110	336	5
TAP	111	0	4
TAP	111	48	3
TAP	111	96	2
TAP	111	192	2
TAP	111	192	4
TAP	111	264	3
TAP	111	264	5
TAP	111	336	2
TAP	111	336	4
TAP	112	0	5
TAP	112	48	4
TAP	112	96	3
TAP	112	144	2
TAP	112	240	4
TAP	112	336	5
TAP	113	0	4
TAP	113	48	3
TAP	113	96	2
TAP	113	192	3
TAP	113	192	4
TAP	113	288	3
TAP	113	336	4
TAP	114	0	5
TAP	114	48	4
TAP	114	96	3
TAP	114	144	2
TAP	114	240	4
TAP	114	336	5
TAP	115	0	4
TAP	115	48	3
TAP	115	96	2
TAP	115	192	2
TAP	115	192	4
TAP	115	264	3
TAP	115	264	5
TAP	115	336	2
TAP	115	336	4
TAP	116	0	5
TAP	116	48	4
TAP	116	96	3
TAP	116	144	2
TAP	116	240	4
TAP	116	336	5
TAP	117	0	4
TAP	117	48	3
TAP	117	96	2
TAP	117	192	3
TAP	117	192	4

T_REC_TAP	689
T_REC_BRK	21
T_REC_XTP	0
T_REC_HLD	15
T_REC_XHO	0
T_REC_STR	120
T_REC_BST	1
T_REC_XST	0
T_REC_TTP	0
T_REC_THO	0
T_REC_SLD	121
T_REC_ALL	967
T_NUM_TAP	809
T_NUM_BRK	22
T_NUM_HLD	15
T_NUM_SLD	121
T_NUM_ALL	967
T_JUDGE_TAP	831
T_JUDGE_HLD	105
T_JUDGE_SLD	121
T_JUDGE_ALL	1057
TTM_EACHPAIRS	208
TTM_SCR_TAP	404500
TTM_SCR_BRK	57200
TTM_SCR_HLD	15000
TTM_SCR_SLD	181500
TTM_SCR_ALL	658200
TTM_SCR_S	636350
TTM_SCR_SS	656000
TTM_RAT_ACV	10033

