VERSION	0.00.00	1.03.00
FES_MODE	0
BPM_DEF	200.000	200.000	200.000	200.000
MET_DEF	4	4
RESOLUTION	384
CLK_DEF	384
COMPATIBLE_CODE	MA2

BPM	0	0	200.000

HLD	1	0	5	576
TAP	1	336	3
TAP	2	0	3
TAP	2	96	4
TAP	2	192	3
HLD	3	0	2	576
TAP	3	336	4
TAP	4	0	4
TAP	4	96	3
TAP	4	192	4
TAP	5	0	5
TAP	5	96	4
TAP	5	96	5
TAP	5	192	2
TAP	5	288	2
TAP	5	288	3
TAP	6	0	5
TAP	6	96	4
TAP	6	96	5
TAP	6	192	3
TAP	6	240	3
TAP	6	288	4
TAP	7	0	2
TAP	7	96	2
TAP	7	96	3
TAP	7	192	5
TAP	7	288	4
TAP	7	288	5
TAP	8	0	3
TAP	8	0	6
TAP	8	192	3
TAP	8	192	4
TAP	8	288	2
TAP	8	288	5
TAP	9	0	7
TAP	9	96	5
TAP	9	192	0
TAP	9	288	2
TAP	10	0	5
TAP	10	48	5
TAP	10	96	4
TAP	10	192	2
TAP	10	192	3
TAP	10	288	1
TAP	10	288	4
TAP	11	0	0
TAP	11	96	2
TAP	11	192	7
TAP	11	288	5
TAP	12	0	2
TAP	12	48	2
TAP	12	96	3
TAP	12	192	4
TAP	12	192	5
TAP	12	288	3
TAP	12	288	6
TAP	13	0	4
TAP	13	96	6
TAP	13	192	3
TAP	13	288	1
TAP	14	0	5
TAP	14	48	5
TAP	14	96	4
TAP	14	192	2
TAP	14	192	3
TAP	14	288	1
TAP	14	288	4
TAP	15	0	3
TAP	15	96	1
TAP	15	192	4
TAP	15	288	5
TAP	16	0	3
TAP	16	48	3
TAP	16	96	4
HLD	16	192	2	192
HLD	16	192	5	192
TAP	17	48	4
TAP	17	96	4
TAP	17	192	3
TAP	17	240	3
TAP	17	336	2
TAP	17	336	5
TAP	18	48	2
TAP	18	48	5
TAP	18	144	4
TAP	18	192	4
STR	18	240	3
SCR	18	240	3	96	288	2
TAP	19	336	5
TAP	20	0	5
TAP	20	96	2
TAP	20	192	3
TAP	20	192	5
HLD	20	288	2	96
HLD	20	288	4	96
TAP	21	48	2
TAP	21	48	5
TAP	21	144	4
TAP	21	192	4
TAP	21	240	3
TAP	21	336	2
TAP	21	336	4
TAP	22	48	3
TAP	22	48	5
TAP	22	144	4
TAP	22	192	4
STR	22	288	4
SUL	22	288	4	96	240	3
TAP	23	336	2
TAP	24	0	2
TAP	24	96	4
TAP	24	192	3
TAP	24	192	4
TAP	25	0	5
TAP	25	96	4
TAP	25	96	6
TAP	25	192	2
TAP	25	288	1
TAP	25	288	3
STR	26	0	5
SI_	26	0	5	96	96	2
STR	26	192	1
SI_	26	192	1	96	96	6
TAP	27	0	5
TAP	27	96	4
TAP	27	96	6
TAP	27	192	2
TAP	27	288	1
TAP	27	288	3
TAP	28	0	2
TAP	28	96	3
TAP	28	96	4
TAP	28	192	5
TAP	28	288	3
TAP	28	288	4
TAP	29	0	2
TAP	29	96	1
TAP	29	96	3
TAP	29	192	5
TAP	29	288	4
TAP	29	288	6
STR	30	0	2
SI_	30	0	2	96	96	5
STR	30	192	6
SI_	30	192	6	96	96	1
TAP	31	0	2
TAP	31	96	1
TAP	31	96	3
TAP	31	192	5
TAP	31	288	4
TAP	31	288	6
HLD	32	0	7	192
TAP	32	192	0
HLD	33	0	1	288
HLD	33	288	3	192
TAP	34	96	4
TAP	34	192	4
TAP	34	288	3
HLD	35	0	6	288
TAP	35	288	4
TAP	36	0	4
TAP	36	96	3
TAP	36	192	3
TAP	36	288	3
TAP	36	288	4
TAP	37	0	2
TAP	37	0	3
TAP	37	96	4
TAP	37	96	5
TAP	37	192	5
TAP	37	192	6
TAP	37	288	4
TAP	37	288	5
TAP	38	0	2
TAP	38	0	3
TAP	38	96	1
TAP	38	96	2
TAP	38	192	2
TAP	38	192	3
TAP	38	288	3
TAP	38	288	4
HLD	39	0	1	144
HLD	39	0	6	144
TAP	39	288	1
TAP	39	288	6
TAP	39	336	1
TAP	39	336	6
TAP	40	0	1
TAP	40	0	6
TAP	40	192	3
TAP	40	192	4
TAP	40	288	0
TAP	40	288	7
BRK	41	0	1
BRK	41	0	6
TAP	41	48	1
TAP	41	48	6
TAP	41	96	1
TAP	41	96	6
TAP	41	192	2
HLD	41	240	2	96
HLD	41	336	0	96
HLD	42	48	7	96
HLD	42	144	5	96
TAP	42	240	2
TAP	42	336	3
TAP	42	336	4
STR	43	0	3
SI_	43	0	3	96	96	0
STR	43	0	4
SI_	43	0	4	96	96	7
TAP	43	288	2
TAP	43	288	5
TAP	44	0	4
TAP	44	48	4
TAP	44	96	3
TAP	44	192	2
TAP	44	192	3
TAP	44	288	1
TAP	44	288	4
TAP	45	0	0
TAP	45	0	7
TAP	45	48	0
TAP	45	48	7
TAP	45	96	0
TAP	45	96	7
TAP	45	192	1
TAP	45	192	6
TAP	45	240	1
TAP	45	240	6
TAP	45	336	2
TAP	45	336	3
TAP	46	48	5
HLD	46	96	5	96
TAP	46	192	4
STR	46	240	4
SCR	46	240	4	96	240	3
TAP	47	288	3
TAP	47	288	5
TAP	47	336	3
TAP	47	336	5
TAP	48	48	2
TAP	48	48	4
TAP	48	96	2
TAP	48	96	4
TAP	48	192	4
TAP	48	192	5
TAP	48	288	2
TAP	48	288	7
TAP	49	0	1
TAP	49	0	6
TAP	49	48	1
TAP	49	48	6
TAP	49	96	1
TAP	49	96	6
TAP	49	192	5
HLD	49	240	5	96
HLD	49	336	7	96
HLD	50	48	0	96
HLD	50	144	2	96
TAP	50	240	5
TAP	50	336	3
TAP	50	336	4
STR	51	0	3
SI_	51	0	3	96	96	7
STR	51	0	4
SI_	51	0	4	96	96	0
TAP	51	288	2
TAP	51	288	5
TAP	52	0	3
TAP	52	48	3
TAP	52	96	4
TAP	52	192	4
TAP	52	192	5
TAP	52	288	3
TAP	52	288	6
TAP	53	0	0
TAP	53	0	7
TAP	53	48	0
TAP	53	48	7
TAP	53	96	0
TAP	53	96	7
TAP	53	192	1
TAP	53	192	6
TAP	53	240	1
TAP	53	240	6
TAP	53	336	4
TAP	53	336	5
TAP	54	48	2
TAP	54	48	3
TAP	54	144	4
TAP	54	192	4
STR	54	240	3
SCL	54	240	3	96	240	4
TAP	55	288	3
TAP	55	288	4
TAP	55	336	3
TAP	55	336	4
TAP	56	48	2
TAP	56	48	5
TAP	56	96	2
TAP	56	96	5
TAP	56	192	7
TAP	56	288	0
TAP	57	0	1
TAP	57	0	3
TAP	57	96	5
TAP	57	144	5
TAP	57	240	4
TAP	57	240	6
TAP	57	336	0
TAP	57	336	7
STR	58	96	0
SSL	58	96	0	96	192	4
TAP	59	0	5
TAP	59	48	4
TAP	59	48	5
TAP	59	144	2
TAP	59	192	2
TAP	59	192	3
TAP	59	288	3
TAP	59	288	4
STR	59	336	2
SUR	59	336	2	96	240	1
TAP	59	336	5
TAP	61	0	5
TAP	61	96	5
TAP	61	192	5
TAP	61	288	5
TAP	62	0	3
TAP	62	0	5
TAP	62	96	5
TAP	62	192	5
TAP	62	288	5
TAP	63	0	3
TAP	63	0	5
TAP	63	96	5
TAP	63	192	5
TAP	63	288	5
TAP	64	0	3
TAP	64	0	5
TAP	64	96	5
TAP	64	192	5
TAP	64	288	5
TAP	65	0	4
TAP	65	0	5
TAP	65	96	5
TAP	65	192	3
TAP	65	192	5
TAP	65	288	5
TAP	66	0	4
TAP	66	0	5
TAP	66	96	5
TAP	66	192	3
TAP	66	192	5
TAP	66	288	5
TAP	67	0	4
TAP	67	0	5
TAP	67	96	5
TAP	67	192	2
TAP	67	192	5
TAP	67	288	5
TAP	68	0	4
TAP	68	0	5
TAP	68	96	5
TAP	68	192	2
TAP	68	192	5
TAP	68	288	3
TAP	68	288	4
TAP	69	0	6
TAP	69	0	7
TAP	69	48	6
TAP	69	48	7
TAP	70	0	0
TAP	70	0	1
TAP	70	48	0
TAP	70	48	1
TAP	71	0	2
TAP	71	0	5
TAP	71	48	2
TAP	71	48	5
TAP	72	0	0
TAP	72	0	7
HLD	72	192	2	864
HLD	72	192	5	864
BRK	75	0	0
BRK	75	0	7
TAP	75	48	0
TAP	75	48	7
TAP	75	96	0
TAP	75	96	7
TAP	75	192	6
HLD	75	240	6	96
HLD	75	336	4	96
HLD	76	48	3	96
HLD	76	144	1	96
TAP	76	240	6
TAP	76	336	6
TAP	76	336	7
STR	77	0	6
SCL	77	0	6	96	96	3
STR	77	0	7
SV_	77	0	7	96	96	2
TAP	77	288	1
TAP	77	288	4
TAP	78	0	2
TAP	78	48	2
TAP	78	96	3
TAP	78	192	4
TAP	78	192	5
TAP	78	288	3
TAP	78	288	6
TAP	79	0	1
TAP	79	0	7
TAP	79	48	1
TAP	79	48	7
TAP	79	96	1
TAP	79	96	7
TAP	79	192	0
TAP	79	192	4
TAP	79	240	0
TAP	79	240	4
TAP	79	336	4
TAP	79	336	5
TAP	80	48	2
HLD	80	96	2	96
TAP	80	192	3
STR	80	240	3
SCL	80	240	3	96	240	4
TAP	81	288	2
TAP	81	288	4
TAP	81	336	2
TAP	81	336	4
TAP	82	48	3
TAP	82	48	5
TAP	82	96	3
TAP	82	96	5
TAP	82	192	2
TAP	82	192	3
TAP	82	288	0
TAP	82	288	5
TAP	83	0	0
TAP	83	0	7
TAP	83	48	0
TAP	83	48	7
TAP	83	96	0
TAP	83	96	7
TAP	83	192	1
HLD	83	240	1	96
HLD	83	336	3	96
HLD	84	48	4	96
HLD	84	144	6	96
TAP	84	240	1
TAP	84	336	0
TAP	84	336	1
STR	85	0	0
SV_	85	0	0	96	96	5
STR	85	0	1
SCR	85	0	1	96	96	4
TAP	85	288	3
TAP	85	288	6
TAP	86	0	5
TAP	86	48	5
TAP	86	96	4
TAP	86	192	2
TAP	86	192	3
TAP	86	288	1
TAP	86	288	4
TAP	87	0	0
TAP	87	0	6
TAP	87	48	0
TAP	87	48	6
TAP	87	96	0
TAP	87	96	6
TAP	87	192	3
TAP	87	192	7
TAP	87	240	3
TAP	87	240	7
TAP	87	336	2
TAP	87	336	3
TAP	88	48	4
TAP	88	48	5
TAP	88	144	3
TAP	88	192	3
STR	88	288	4
SCR	88	288	4	96	384	3
TAP	90	96	4
TAP	90	96	5
TAP	90	192	2
TAP	90	192	3
TAP	90	288	1
TAP	90	288	4
TAP	91	0	0
TAP	91	96	2
TAP	91	192	7
TAP	91	288	5
TAP	92	0	2
TAP	92	48	2
TAP	92	96	3
TAP	92	192	4
TAP	92	192	5
TAP	92	288	3
TAP	92	288	6
TAP	93	0	4
TAP	93	96	6
TAP	93	192	3
TAP	93	288	1
TAP	94	0	5
TAP	94	48	5
TAP	94	96	4
TAP	94	192	1
TAP	94	192	3
TAP	94	288	0
TAP	94	336	0
TAP	95	48	7
TAP	95	96	7
TAP	95	192	4
TAP	95	192	6
TAP	95	288	7
TAP	95	336	7
TAP	96	48	0
TAP	96	96	0
TAP	96	192	3
TAP	96	192	4
TAP	96	288	0
TAP	96	288	7
BRK	97	0	1
BRK	97	0	6
TAP	97	48	1
TAP	97	48	6
TAP	97	96	1
TAP	97	96	6
TAP	97	192	7
HLD	97	240	7	96
HLD	97	336	4	96
HLD	98	48	3	96
HLD	98	144	0	96
TAP	98	240	7
TAP	98	336	6
TAP	98	336	7
STR	99	0	6
SI_	99	0	6	96	96	2
STR	99	0	7
SI_	99	0	7	96	96	3
TAP	99	288	1
TAP	99	288	4
TAP	100	0	2
TAP	100	48	2
TAP	100	96	3
TAP	100	192	4
TAP	100	192	5
TAP	100	288	3
TAP	100	288	6
TAP	101	0	0
TAP	101	0	7
TAP	101	48	0
TAP	101	48	7
TAP	101	96	0
TAP	101	96	7
TAP	101	144	0
TAP	101	144	7
TAP	101	192	0
TAP	101	192	7
TAP	101	240	0
TAP	101	240	7
TAP	101	336	4
TAP	101	336	5
TAP	102	48	2
TAP	102	48	3
TAP	102	144	4
TAP	102	192	4
STR	102	240	3
SCL	102	240	3	96	240	4
TAP	103	288	3
TAP	103	288	4
TAP	103	336	3
TAP	103	336	4
TAP	104	48	2
TAP	104	48	5
TAP	104	96	2
TAP	104	96	5
TAP	104	192	0
TAP	104	288	7
TAP	105	0	4
TAP	105	0	6
TAP	105	96	2
TAP	105	144	2
TAP	105	240	1
TAP	105	240	3
TAP	105	336	0
TAP	105	336	7
STR	106	96	7
SSR	106	96	7	96	192	3
TAP	107	0	2
TAP	107	48	2
TAP	107	48	3
TAP	107	144	5
TAP	107	192	4
TAP	107	192	5
TAP	107	288	0
TAP	107	288	7
HLD	107	336	1	528
HLD	107	336	6	528
HLD	110	0	5	672
TAP	110	96	3
TAP	110	144	3
TAP	110	240	4
TAP	110	336	3
TAP	111	0	3
TAP	111	96	4
TAP	111	192	2
TAP	111	288	3
HLD	112	0	2	672
TAP	112	96	4
TAP	112	144	4
TAP	112	240	3
TAP	112	336	4
TAP	113	0	4
TAP	113	96	3
TAP	113	192	5
TAP	113	288	4
HLD	114	0	5	672
TAP	114	96	3
TAP	114	144	3
TAP	114	240	4
TAP	114	336	3
TAP	115	0	3
TAP	115	96	4
TAP	115	192	2
TAP	115	288	3
HLD	116	0	2	480
TAP	116	96	4
TAP	116	144	4
TAP	116	240	3
TAP	116	336	4
TAP	117	0	4
TAP	117	96	5
TAP	117	192	3
TAP	117	192	4

T_REC_TAP	543
T_REC_BRK	6
T_REC_XTP	0
T_REC_HLD	42
T_REC_XHO	0
T_REC_STR	24
T_REC_BST	0
T_REC_XST	0
T_REC_TTP	0
T_REC_THO	0
T_REC_SLD	24
T_REC_ALL	639
T_NUM_TAP	567
T_NUM_BRK	6
T_NUM_HLD	42
T_NUM_SLD	24
T_NUM_ALL	639
T_JUDGE_TAP	573
T_JUDGE_HLD	216
T_JUDGE_SLD	24
T_JUDGE_ALL	813
TTM_EACHPAIRS	186
TTM_SCR_TAP	283500
TTM_SCR_BRK	15600
TTM_SCR_HLD	42000
TTM_SCR_SLD	36000
TTM_SCR_ALL	377100
TTM_SCR_S	365250
TTM_SCR_SS	376500
TTM_RAT_ACV	10015

