VERSION	0.00.00	1.03.00
FES_MODE	0
BPM_DEF	200.000	200.000	200.000	200.000
MET_DEF	4	4
RESOLUTION	384
CLK_DEF	384
COMPATIBLE_CODE	MA2

BPM	0	0	200.000

TAP	5	0	5
TAP	5	96	5
TAP	5	192	4
TAP	5	288	4
TAP	6	0	3
TAP	6	96	3
TAP	6	192	2
TAP	6	192	3
TAP	7	0	3
TAP	7	96	3
TAP	7	192	4
TAP	7	288	4
HLD	8	0	2	96
HLD	8	0	5	96
BRK	8	192	2
BRK	8	192	5
TAP	9	0	6
TAP	9	96	6
TAP	9	192	7
TAP	9	288	7
TAP	10	0	6
TAP	10	96	6
TAP	10	192	6
TAP	10	192	7
TAP	11	0	1
TAP	11	96	1
TAP	11	192	0
TAP	11	288	0
TAP	12	0	1
TAP	12	96	1
TAP	12	192	0
TAP	12	192	1
TAP	13	0	2
TAP	13	96	2
TAP	13	192	3
TAP	13	288	3
TAP	14	0	2
TAP	14	96	2
TAP	14	192	2
TAP	14	192	3
TAP	15	0	5
TAP	15	96	5
TAP	15	192	4
TAP	15	288	4
TAP	16	0	5
TAP	16	96	5
TAP	16	192	4
TAP	16	192	5
HLD	17	0	2	192
TAP	17	192	3
TAP	18	0	2
TAP	18	192	2
TAP	18	192	3
HLD	19	0	5	192
TAP	19	192	4
TAP	20	0	5
TAP	20	192	4
TAP	20	192	5
HLD	21	0	6	192
TAP	21	192	7
TAP	22	0	6
TAP	22	192	6
TAP	22	192	7
HLD	23	0	1	192
TAP	23	192	0
TAP	24	0	1
TAP	24	192	0
TAP	24	192	1
TAP	25	0	2
TAP	25	96	3
TAP	25	192	2
TAP	25	192	3
TAP	26	0	2
TAP	26	96	3
TAP	26	192	3
TAP	26	192	4
TAP	27	0	5
TAP	27	96	4
TAP	27	192	4
TAP	27	192	5
TAP	28	0	5
TAP	28	96	4
TAP	28	192	3
TAP	28	192	4
TAP	29	0	6
TAP	29	96	7
TAP	29	192	6
TAP	29	192	7
TAP	30	0	6
TAP	30	96	7
TAP	30	192	0
TAP	30	192	7
TAP	31	0	1
TAP	31	96	0
TAP	31	192	0
TAP	31	192	1
TAP	32	0	1
TAP	32	96	0
TAP	32	192	0
TAP	32	192	7
STR	33	0	7
SXL	33	0	7	96	480	4
STR	35	0	3
SXL	35	0	3	96	480	0
TAP	37	0	7
TAP	37	96	7
TAP	37	192	7
TAP	37	288	0
TAP	38	0	0
TAP	38	96	0
TAP	38	192	7
TAP	38	288	7
STR	39	0	0
SI_	39	0	0	96	192	3
STR	39	0	7
SI_	39	0	7	96	192	4
BRK	40	0	2
BRK	40	0	5
TAP	41	0	1
TAP	41	96	0
TAP	41	192	0
TAP	41	192	1
TAP	41	288	0
TAP	41	288	1
TAP	42	0	6
TAP	42	96	7
TAP	42	192	6
TAP	42	192	7
TAP	42	288	6
TAP	42	288	7
STR	43	0	6
SI_	43	0	6	96	192	3
STR	43	0	7
SI_	43	0	7	96	192	2
TAP	44	0	2
TAP	44	96	3
TAP	44	192	1
TAP	44	192	4
TAP	45	0	2
TAP	45	96	3
TAP	45	192	2
TAP	45	192	3
TAP	45	288	2
TAP	45	288	3
TAP	46	0	5
TAP	46	96	4
TAP	46	192	4
TAP	46	192	5
TAP	46	288	4
TAP	46	288	5
STR	47	0	4
SI_	47	0	4	96	192	1
STR	47	0	5
SI_	47	0	5	96	192	0
TAP	48	0	1
TAP	48	96	0
BRK	48	192	2
BRK	48	192	7
TAP	49	0	6
TAP	49	96	7
TAP	49	192	6
TAP	49	192	7
TAP	49	288	6
TAP	49	288	7
TAP	50	0	1
TAP	50	96	0
TAP	50	192	0
TAP	50	192	1
TAP	50	288	0
TAP	50	288	1
STR	51	0	0
SI_	51	0	0	96	192	5
STR	51	0	1
SI_	51	0	1	96	192	4
TAP	52	0	5
TAP	52	96	4
TAP	52	192	3
TAP	52	192	6
TAP	53	0	5
TAP	53	96	4
TAP	53	192	4
TAP	53	192	5
TAP	53	288	4
TAP	53	288	5
TAP	54	0	2
TAP	54	96	3
TAP	54	192	2
TAP	54	192	3
TAP	54	288	2
TAP	54	288	3
STR	55	0	2
SI_	55	0	2	96	192	7
STR	55	0	3
SI_	55	0	3	96	192	6
TAP	56	0	6
TAP	56	96	7
BRK	56	192	0
BRK	56	192	5
STR	57	0	1
SXL	57	0	1	96	480	5
TAP	59	0	4
TAP	59	48	4
TAP	59	96	4
TAP	59	192	3
TAP	59	240	3
TAP	59	288	3
BRK	60	0	2
BRK	60	0	5
HLD	61	0	5	384
HLD	62	0	4	384
HLD	63	0	3	384
HLD	64	0	2	384
HLD	65	0	1	384
HLD	66	0	0	384
HLD	67	0	7	384
TAP	68	0	0
TAP	68	192	1
TAP	68	192	6
HLD	69	0	2	192
HLD	69	0	5	192
HLD	70	0	3	192
TAP	70	192	4
BRK	71	0	2
BRK	71	0	5
TAP	75	0	1
TAP	75	96	0
TAP	75	192	0
TAP	75	192	1
TAP	75	288	2
TAP	75	288	7
TAP	76	0	6
TAP	76	96	7
TAP	76	192	6
TAP	76	192	7
TAP	76	288	0
TAP	76	288	5
STR	77	0	6
SI_	77	0	6	96	192	3
STR	77	0	7
SI_	77	0	7	96	192	2
TAP	78	0	2
TAP	78	96	3
TAP	78	192	1
TAP	78	192	4
TAP	79	0	2
TAP	79	96	3
TAP	79	192	2
TAP	79	192	3
TAP	79	288	1
TAP	79	288	4
TAP	80	0	5
TAP	80	96	4
TAP	80	192	4
TAP	80	192	5
TAP	80	288	3
TAP	80	288	6
STR	81	0	4
SI_	81	0	4	96	192	1
STR	81	0	5
SI_	81	0	5	96	192	0
TAP	82	0	1
TAP	82	96	0
BRK	82	192	2
BRK	82	192	7
TAP	83	0	6
TAP	83	96	7
TAP	83	192	6
TAP	83	192	7
TAP	83	288	0
TAP	83	288	5
TAP	84	0	1
TAP	84	96	0
TAP	84	192	0
TAP	84	192	1
TAP	84	288	2
TAP	84	288	7
STR	85	0	0
SI_	85	0	0	96	192	5
STR	85	0	1
SI_	85	0	1	96	192	4
TAP	86	0	5
TAP	86	96	4
TAP	86	192	3
TAP	86	192	6
TAP	87	0	5
TAP	87	96	4
TAP	87	192	4
TAP	87	192	5
TAP	87	288	3
TAP	87	288	6
TAP	88	0	2
TAP	88	96	3
TAP	88	192	2
TAP	88	192	3
TAP	88	288	1
TAP	88	288	4
STR	89	0	3
SXR	89	0	3	96	480	0
STR	89	0	4
SXL	89	0	4	96	480	7
TAP	91	0	1
TAP	91	96	0
TAP	91	192	7
TAP	91	288	6
TAP	92	0	0
TAP	92	0	7
TAP	92	96	0
TAP	92	96	7
TAP	92	192	1
TAP	92	192	6
TAP	93	0	2
TAP	93	96	2
TAP	93	192	2
TAP	93	192	3
TAP	94	0	5
TAP	94	96	5
TAP	94	192	4
TAP	94	192	5
TAP	95	0	5
TAP	95	96	4
TAP	95	192	3
TAP	95	288	2
TAP	96	0	3
TAP	96	0	4
TAP	96	96	3
TAP	96	96	4
TAP	96	192	2
TAP	96	192	5
TAP	97	0	1
TAP	97	96	0
TAP	97	96	1
TAP	97	192	1
TAP	97	288	0
TAP	97	288	1
TAP	98	0	6
TAP	98	96	6
TAP	98	96	7
TAP	98	192	6
TAP	98	288	6
TAP	98	288	7
STR	99	0	0
SI_	99	0	0	96	192	5
STR	99	0	1
SI_	99	0	1	96	192	4
TAP	100	0	5
TAP	100	96	4
TAP	100	192	3
TAP	100	192	6
TAP	101	0	5
TAP	101	96	4
TAP	101	96	5
TAP	101	192	5
TAP	101	288	4
TAP	101	288	5
TAP	102	0	2
TAP	102	96	2
TAP	102	96	3
TAP	102	192	2
TAP	102	288	2
TAP	102	288	3
STR	103	0	4
SI_	103	0	4	96	192	1
STR	103	0	5
SI_	103	0	5	96	192	0
TAP	104	0	1
TAP	104	96	0
BRK	104	192	2
BRK	104	192	7
STR	105	0	1
SXL	105	0	1	96	480	5
TAP	107	0	4
TAP	107	48	4
TAP	107	96	4
TAP	107	192	3
TAP	107	240	3
TAP	107	288	3
BRK	108	0	2
BRK	108	0	5
HLD	110	0	2	384
HLD	111	0	3	384
HLD	112	0	4	384
TAP	113	0	5
TAP	113	192	4
TAP	113	192	5
HLD	114	0	5	384
HLD	115	0	4	384
HLD	116	0	3	384
TAP	117	0	2
TAP	117	192	3
TAP	117	192	4

T_REC_TAP	298
T_REC_BRK	18
T_REC_XTP	0
T_REC_HLD	22
T_REC_XHO	0
T_REC_STR	26
T_REC_BST	0
T_REC_XST	0
T_REC_TTP	0
T_REC_THO	0
T_REC_SLD	26
T_REC_ALL	390
T_NUM_TAP	324
T_NUM_BRK	18
T_NUM_HLD	22
T_NUM_SLD	26
T_NUM_ALL	390
T_JUDGE_TAP	342
T_JUDGE_HLD	136
T_JUDGE_SLD	26
T_JUDGE_ALL	504
TTM_EACHPAIRS	95
TTM_SCR_TAP	162000
TTM_SCR_BRK	46800
TTM_SCR_HLD	22000
TTM_SCR_SLD	39000
TTM_SCR_ALL	269800
TTM_SCR_S	260000
TTM_SCR_SS	268000
TTM_RAT_ACV	10067

