VERSION	0.00.00	1.03.00
FES_MODE	0
BPM_DEF	200.000	200.000	200.000	200.000
MET_DEF	4	4
RESOLUTION	384
CLK_DEF	384
COMPATIBLE_CODE	MA2

BPM	0	0	200.000

TAP	5	0	0
TAP	5	192	0
TAP	6	0	0
TAP	7	0	7
TAP	7	192	7
TAP	8	0	7
TAP	8	96	7
TAP	8	192	7
TAP	9	0	6
TAP	9	192	6
TAP	10	0	6
TAP	11	0	5
TAP	11	192	5
TAP	12	0	5
TAP	12	96	5
TAP	12	192	5
TAP	13	0	4
TAP	13	192	4
TAP	14	0	4
TAP	15	0	3
TAP	15	192	3
TAP	16	0	3
TAP	16	96	3
TAP	16	192	3
TAP	17	0	2
TAP	17	192	2
TAP	18	0	1
TAP	18	192	1
STR	19	0	0
SI_	19	0	0	96	288	4
TAP	21	0	5
TAP	21	192	5
TAP	22	0	6
TAP	22	192	6
STR	23	0	7
SI_	23	0	7	96	288	3
TAP	25	0	2
TAP	25	192	2
TAP	26	0	1
TAP	26	192	1
HLD	27	0	0	192
HLD	27	0	7	192
TAP	28	0	7
TAP	28	96	0
TAP	28	192	7
TAP	29	0	6
TAP	29	192	6
TAP	30	0	5
TAP	30	192	5
HLD	31	0	3	192
HLD	31	0	4	192
TAP	32	0	3
TAP	32	0	4
BRK	32	192	3
BRK	32	192	4
TAP	33	0	2
TAP	33	192	2
TAP	34	0	1
TAP	34	192	1
TAP	35	0	0
TAP	35	192	0
BRK	36	0	7
TAP	37	0	0
TAP	37	96	0
TAP	37	288	7
TAP	38	0	7
TAP	38	192	0
TAP	38	288	0
TAP	40	0	0
TAP	40	0	7
TAP	41	0	7
TAP	41	96	7
TAP	41	192	7
TAP	42	0	6
TAP	42	96	6
TAP	42	192	6
STR	43	0	5
SI_	43	0	5	96	288	2
TAP	45	0	0
TAP	45	96	0
TAP	45	192	0
TAP	46	0	1
TAP	46	96	1
TAP	46	192	1
STR	47	0	2
SI_	47	0	2	96	288	5
TAP	49	0	6
TAP	49	96	6
TAP	49	192	6
TAP	50	0	5
TAP	50	96	5
TAP	50	192	5
STR	51	0	4
SI_	51	0	4	96	288	0
TAP	53	0	1
TAP	53	96	1
TAP	53	192	1
TAP	54	0	2
TAP	54	96	2
TAP	54	192	2
STR	55	0	3
SI_	55	0	3	96	288	7
HLD	57	0	6	336
HLD	57	0	7	336
HLD	59	0	0	336
HLD	59	0	1	336
STR	61	0	0
SI_	61	0	0	96	288	3
STR	63	0	7
SI_	63	0	7	96	288	4
TAP	65	0	3
TAP	65	192	3
TAP	66	0	3
TAP	66	192	3
TAP	66	192	4
TAP	67	0	4
TAP	67	192	4
TAP	68	0	4
BRK	68	192	3
BRK	68	192	4
TAP	69	0	2
TAP	69	0	3
TAP	70	0	3
TAP	70	0	4
TAP	71	0	4
TAP	71	0	5
HLD	72	0	3	816
HLD	72	0	4	816
TAP	75	0	2
TAP	75	96	2
TAP	75	192	2
TAP	76	0	1
TAP	76	96	1
TAP	76	192	1
STR	77	0	0
SI_	77	0	0	96	288	4
TAP	79	0	5
TAP	79	96	5
TAP	79	192	5
TAP	80	0	6
TAP	80	96	6
TAP	80	192	6
STR	81	0	7
SI_	81	0	7	96	288	3
TAP	83	0	2
TAP	83	96	2
TAP	83	192	2
TAP	84	0	1
TAP	84	96	1
TAP	84	192	1
STR	85	0	0
SI_	85	0	0	96	288	5
TAP	87	0	5
TAP	87	96	5
TAP	87	192	5
TAP	88	0	6
TAP	88	96	6
TAP	88	192	6
STR	89	0	7
SI_	89	0	7	96	288	2
TAP	91	0	1
TAP	91	192	1
TAP	92	0	0
TAP	92	192	0
TAP	93	0	7
TAP	93	192	7
HLD	94	0	6	192
TAP	95	0	5
TAP	95	192	5
TAP	96	0	4
TAP	96	192	4
TAP	97	0	3
TAP	97	96	3
TAP	97	192	3
TAP	98	0	4
TAP	98	96	4
TAP	98	192	4
STR	99	0	3
SI_	99	0	3	96	288	0
TAP	101	0	4
TAP	101	96	4
TAP	101	192	4
TAP	102	0	3
TAP	102	96	3
TAP	102	192	3
STR	103	0	4
SI_	103	0	4	96	288	7
HLD	105	0	0	336
HLD	105	0	1	336
HLD	107	0	6	336
HLD	107	0	7	336
HLD	110	0	0	192
TAP	111	0	0
TAP	111	192	0
HLD	112	0	1	192
TAP	113	0	1
TAP	113	192	1
HLD	114	0	2	192
TAP	115	0	2
TAP	115	192	2
HLD	116	0	3	192
TAP	117	0	3
TAP	117	192	3
TAP	117	192	4

T_REC_TAP	152
T_REC_BRK	5
T_REC_XTP	0
T_REC_HLD	19
T_REC_XHO	0
T_REC_STR	14
T_REC_BST	0
T_REC_XST	0
T_REC_TTP	0
T_REC_THO	0
T_REC_SLD	14
T_REC_ALL	204
T_NUM_TAP	166
T_NUM_BRK	5
T_NUM_HLD	19
T_NUM_SLD	14
T_NUM_ALL	204
T_JUDGE_TAP	171
T_JUDGE_HLD	126
T_JUDGE_SLD	14
T_JUDGE_ALL	311
TTM_EACHPAIRS	16
TTM_SCR_TAP	83000
TTM_SCR_BRK	13000
TTM_SCR_HLD	19000
TTM_SCR_SLD	21000
TTM_SCR_ALL	136000
TTM_SCR_S	131450
TTM_SCR_SS	135500
TTM_RAT_ACV	10036

