VERSION	0.00.00	1.03.00
FES_MODE	0
BPM_DEF	184.000	184.000	184.000	184.000
MET_DEF	4	4
RESOLUTION	384
CLK_DEF	384
COMPATIBLE_CODE	MA2

BPM	0	0	184.000
MET	0	0	4	3
MET	58	192	4	5
MET	59	288	4	3

HLD	3	0	2	96
BST	3	0	4
SCR	3	0	4	96	960	3
HLD	3	288	4	96
HLD	4	192	6	96
HLD	5	96	0	96
TAP	6	0	2
TAP	6	48	1
TAP	6	96	0
TAP	6	192	5
TAP	6	240	4
TAP	6	336	4
TAP	7	48	4
HLD	7	96	3	48
HLD	7	96	5	48
BRK	7	192	2
BRK	7	192	6
BRK	7	288	3
BRK	7	288	7
BRK	7	336	0
BRK	7	336	4
BRK	8	48	0
BRK	8	48	4
BRK	8	96	3
BRK	8	96	7
STR	8	192	3
SI_	8	192	3	96	48	0
STR	8	192	7
SI_	8	192	7	96	48	4
BRK	8	240	0
BRK	8	240	4
HLD	9	0	5	144
TAP	9	96	4
HLD	9	144	3	144
STR	9	240	7
SCL	9	240	7	96	96	4
HLD	9	288	7	192
TAP	10	96	0
HLD	10	192	1	144
TAP	10	288	0
HLD	10	336	7	144
STR	11	48	3
SCL	11	48	3	96	96	0
HLD	11	96	3	192
TAP	11	288	4
HLD	12	0	5	288
TAP	12	96	4
TAP	12	144	4
HLD	12	288	2	288
TAP	13	0	1
TAP	13	48	1
HLD	13	192	7	288
TAP	13	288	6
TAP	13	336	6
HLD	14	96	0	192
TAP	14	192	1
TAP	14	240	1
TAP	14	288	2
HLD	15	0	0	48
HLD	15	0	4	48
HLD	15	96	1	48
HLD	15	96	5	48
HLD	15	192	2	48
HLD	15	192	6	48
HLD	15	288	0	48
HLD	15	288	4	48
HLD	16	0	3	48
HLD	16	0	7	48
HLD	16	96	2	48
HLD	16	96	6	48
TAP	16	192	1
TAP	16	192	5
TAP	16	240	1
TAP	16	240	5
TAP	16	288	3
TAP	16	288	7
TAP	16	336	3
TAP	16	336	7
TAP	17	0	1
TAP	17	0	5
TAP	17	48	1
TAP	17	48	5
TAP	17	96	0
TAP	17	96	4
TAP	17	144	0
TAP	17	144	4
STR	17	192	7
SF_	17	192	7	96	48	3
TAP	18	0	1
TAP	18	0	3
TAP	18	48	1
TAP	18	48	3
TAP	18	96	4
TAP	18	96	6
TAP	18	144	4
TAP	18	144	6
TAP	18	192	3
TAP	18	192	5
TAP	18	240	2
TAP	18	240	4
TAP	18	288	1
TAP	18	288	3
TAP	18	336	1
TAP	18	336	3
STR	19	0	5
SI_	19	0	5	96	48	2
STR	19	0	7
SI_	19	0	7	96	48	2
TAP	19	48	5
TAP	19	48	7
BRK	19	192	4
BRK	19	192	6
TAP	19	240	0
TAP	19	264	7
TAP	19	288	0
BRK	19	336	1
BRK	19	336	3
TAP	20	0	7
TAP	20	24	0
TAP	20	48	7
TAP	20	96	2
TAP	20	96	6
TAP	20	144	1
TAP	20	144	5
HLD	20	192	0	48
HLD	20	192	4	48
TAP	20	288	1
TAP	20	288	5
TAP	20	312	2
TAP	20	312	6
TAP	20	336	3
TAP	20	336	7
TAP	20	360	0
TAP	20	360	4
BST	21	0	1
SI_	21	0	1	96	48	6
BST	21	0	5
SI_	21	0	5	96	48	2
TAP	21	96	1
TAP	21	96	5
STR	21	192	2
SI_	21	192	2	96	48	7
STR	21	192	6
SI_	21	192	6	96	48	3
TAP	21	240	3
TAP	21	240	7
TAP	22	48	0
TAP	22	72	1
TAP	22	96	2
TAP	22	96	3
STR	22	192	3
SI_	22	192	3	96	48	0
STR	22	192	7
SI_	22	192	7	96	48	4
TAP	22	288	3
TAP	22	288	7
TAP	23	0	0
TAP	23	0	4
TAP	23	48	1
TAP	23	48	5
TAP	23	144	6
TAP	23	160	7
TAP	23	176	0
STR	23	192	1
SI_	23	192	1	96	48	4
SI_	23	192	1	96	48	6
HLD	24	0	3	48
HLD	24	0	7	48
HLD	24	96	0	48
HLD	24	96	4	48
STR	24	192	7
SI_	24	192	7	96	48	3
STR	24	240	3
SI_	24	240	3	96	48	7
BRK	25	96	1
BRK	25	96	5
HLD	25	192	4	96
TAP	25	288	0
TAP	25	312	0
TAP	25	336	6
TAP	25	360	6
TAP	26	0	2
TAP	26	24	2
TAP	26	48	4
TAP	26	72	4
TAP	26	144	2
TAP	26	144	3
HLD	26	192	1	72
HLD	26	264	7	72
TAP	26	336	4
STR	27	0	2
SI_	27	0	2	96	48	7
STR	27	0	6
SI_	27	0	6	96	48	3
TAP	27	96	2
TAP	27	96	6
STR	27	192	1
SI_	27	192	1	96	48	6
STR	27	192	5
SI_	27	192	5	96	48	2
STR	27	240	2
SLR	27	240	2	96	192	6
STR	27	240	6
SLR	27	240	6	96	192	2
STR	28	192	0
SI_	28	192	0	96	48	5
STR	28	192	4
SI_	28	192	4	96	48	1
TAP	28	288	0
TAP	28	288	4
TAP	29	0	2
TAP	29	0	6
TAP	29	48	3
TAP	29	48	7
HLD	29	96	0	144
HLD	29	96	4	48
TAP	29	192	4
TAP	29	208	3
TAP	29	224	2
TAP	29	240	1
BRK	29	288	7
STR	30	0	0
SI_	30	0	0	96	48	3
STR	30	0	4
SI_	30	0	4	96	48	7
TAP	30	96	0
TAP	30	96	4
TAP	30	192	3
TAP	30	192	7
TAP	30	240	2
TAP	30	240	6
TAP	30	336	3
TAP	30	336	5
TAP	31	0	0
TAP	31	0	6
TAP	31	48	1
TAP	31	48	4
TAP	31	96	0
TAP	31	96	2
TAP	31	144	4
TAP	31	144	6
TAP	31	192	2
TAP	31	192	3
TAP	31	240	6
TAP	31	264	7
TAP	31	288	6
TAP	31	336	4
TAP	31	336	5
TAP	32	0	1
TAP	32	24	0
HLD	32	48	1	72
HLD	32	120	6	72
HLD	32	192	4	72
HLD	32	264	2	64
BRK	32	328	0
TAP	33	0	5
TAP	33	24	4
TAP	33	48	5
TAP	33	96	1
TAP	33	120	0
TAP	33	144	1
TAP	33	168	0
TAP	33	240	5
TAP	33	240	6
TAP	33	336	2
TAP	33	360	2
TAP	34	0	7
TAP	34	48	4
TAP	34	72	5
HLD	34	96	3	48
HLD	34	96	6	48
TAP	34	192	2
TAP	34	216	3
TAP	34	240	2
TAP	34	288	6
TAP	34	312	7
TAP	34	336	6
TAP	34	360	7
TAP	35	48	1
TAP	35	48	2
TAP	35	144	5
TAP	35	168	5
TAP	35	192	0
TAP	35	240	3
TAP	35	264	2
HLD	35	288	1	48
HLD	35	288	4	48
TAP	36	0	0
TAP	36	24	7
TAP	36	48	0
TAP	36	96	4
TAP	36	120	3
TAP	36	144	5
TAP	36	168	2
TAP	36	240	1
TAP	36	240	6
TAP	36	336	1
TAP	36	360	1
TAP	37	0	4
TAP	37	48	7
TAP	37	72	6
HLD	37	96	0	48
HLD	37	96	5	48
HLD	37	192	3	48
HLD	37	192	4	48
TAP	37	288	7
TAP	37	312	2
TAP	37	336	5
TAP	37	360	1
TAP	38	0	4
TAP	38	24	3
HLD	38	48	6	72
HLD	38	120	1	72
HLD	38	192	3	72
HLD	38	264	5	64
HLD	38	328	7	56
BST	39	0	0
SCR	39	0	0	96	48	3
TAP	39	48	5
TAP	39	72	5
TAP	39	96	0
TAP	39	192	4
TAP	39	216	3
TAP	39	240	4
TAP	39	288	6
TAP	39	336	1
TAP	39	360	0
TAP	40	0	1
TAP	40	48	5
TAP	40	72	4
HLD	40	96	3	48
HLD	40	96	6	48
STR	40	192	7
SCL	40	192	7	96	48	4
TAP	40	240	2
TAP	40	264	2
TAP	40	288	7
TAP	41	0	3
TAP	41	24	4
TAP	41	48	3
TAP	41	96	1
TAP	41	144	6
TAP	41	168	7
TAP	41	192	6
TAP	41	240	2
TAP	41	264	3
HLD	41	288	1	48
HLD	41	288	4	48
TAP	42	0	5
TAP	42	24	4
TAP	42	48	6
TAP	42	96	2
TAP	42	120	3
TAP	42	144	1
TAP	42	192	6
TAP	42	192	7
TAP	42	240	0
TAP	42	240	1
TAP	42	288	2
TAP	42	312	3
TAP	42	336	1
TAP	43	0	5
TAP	43	24	4
TAP	43	48	6
TAP	43	96	0
TAP	43	96	1
TAP	43	144	6
TAP	43	144	7
TAP	43	192	5
TAP	43	216	4
TAP	43	240	6
TAP	43	264	4
TAP	43	288	7
TAP	43	336	2
TAP	43	360	3
TAP	44	0	1
TAP	44	24	3
TAP	44	48	0
TAP	44	96	5
TAP	44	96	6
TAP	44	120	5
TAP	44	120	6
TAP	44	168	1
TAP	44	168	2
TAP	44	192	1
TAP	44	192	2
TAP	44	240	0
TAP	44	240	7
TAP	44	264	0
TAP	44	264	7
HLD	44	336	1	24
HLD	44	336	5	24
STR	45	0	2
SUL	45	0	2	96	864	0
STR	45	0	6
SUL	45	0	6	96	864	4
TAP	48	0	4
STR	48	0	5
SCR	48	0	5	96	48	7
TAP	48	48	4
TAP	48	96	5
TAP	48	144	3
TAP	48	240	3
TAP	48	288	5
TAP	48	336	2
TAP	49	0	5
TAP	49	48	2
TAP	49	96	4
TAP	49	120	4
TAP	49	144	3
STR	49	192	2
SCL	49	192	2	96	48	0
TAP	49	192	3
TAP	49	240	3
TAP	49	288	2
TAP	49	336	4
TAP	50	48	4
TAP	50	96	2
TAP	50	144	5
TAP	50	192	2
TAP	50	240	5
TAP	50	288	3
TAP	50	312	3
TAP	50	336	4
TAP	51	0	5
STR	51	0	6
SCR	51	0	6	96	48	0
TAP	51	48	5
TAP	51	96	6
TAP	51	144	3
TAP	51	240	3
TAP	51	288	6
TAP	51	336	3
TAP	52	0	6
TAP	52	48	3
TAP	52	96	4
TAP	52	120	4
TAP	52	144	3
STR	52	192	1
SCL	52	192	1	96	48	7
TAP	52	192	2
TAP	52	240	2
TAP	52	288	1
TAP	52	336	5
TAP	53	0	4
TAP	53	48	5
TAP	53	144	4
BST	53	192	1
SUL	53	192	1	96	48	4
BRK	53	192	5
TAP	54	0	5
HLD	54	0	6	48
TAP	54	48	5
HLD	54	96	6	48
TAP	54	144	4
HLD	54	192	6	48
TAP	54	240	4
HLD	54	288	6	48
TAP	54	336	3
HLD	55	0	6	48
TAP	55	48	3
TAP	55	96	2
TAP	55	96	6
TAP	55	120	5
TAP	55	144	4
TAP	55	168	3
HLD	55	192	1	48
TAP	55	192	2
TAP	55	240	2
HLD	55	288	1	48
TAP	55	336	3
HLD	56	0	1	48
TAP	56	48	3
HLD	56	96	1	48
TAP	56	144	4
HLD	56	192	1	48
TAP	56	240	4
TAP	56	288	1
TAP	56	288	5
TAP	56	312	2
TAP	56	336	3
TAP	56	360	4
HLD	57	48	2	48
HLD	57	48	3	48
HLD	57	120	6	48
HLD	57	120	7	48
HLD	57	192	0	48
HLD	57	192	1	48
HLD	57	264	4	48
HLD	57	264	5	48
HLD	57	336	1	48
HLD	57	336	2	48
HLD	58	24	5	48
HLD	58	24	6	48
BRK	58	96	0
BRK	58	96	7
TAP	58	192	2
TAP	58	192	6
TAP	58	240	2
TAP	58	240	6
TAP	58	288	3
TAP	58	288	7
TAP	58	336	3
TAP	58	336	7
TAP	59	0	0
TAP	59	0	4
TAP	59	48	0
TAP	59	48	4
TAP	59	96	1
TAP	59	96	5
TAP	59	144	1
TAP	59	144	5
TAP	59	192	1
STR	59	192	5
SXR	59	192	5	96	504	2
TAP	59	216	0
TAP	59	216	4
TAP	59	240	3
TAP	59	240	7
TAP	59	264	2
TAP	59	264	6
STR	59	288	1
SXR	59	288	1	96	408	6
TAP	59	288	5
STR	61	96	3
SCR	61	96	3	96	144	6
STR	61	96	7
SCR	61	96	7	96	144	2
BRK	62	0	3
BRK	62	0	7
BRK	62	288	3
BST	62	288	7
SCL	62	288	7	96	48	4
STR	63	0	3
SI_	63	0	3	96	48	7
TAP	63	0	7
TAP	63	16	2
TAP	63	32	1
TAP	63	48	0
TAP	63	96	3
STR	63	192	0
SCL	63	192	0	96	48	4
STR	63	240	4
SCL	63	240	4	96	48	1
TAP	63	288	0
BRK	64	0	0
TAP	64	96	0
TAP	64	192	1
TAP	64	192	7
TAP	64	208	2
TAP	64	208	6
TAP	64	224	3
TAP	64	224	5
STR	64	240	4
SCL	64	240	4	96	48	0
SCR	64	240	4	96	48	0
TAP	64	336	4
STR	65	48	2
SI_	65	48	2	96	48	4
STR	65	48	7
SI_	65	48	7	96	48	5
TAP	65	144	2
TAP	65	144	7
TAP	65	240	3
BRK	65	288	0
BST	65	288	4
SCR	65	288	4	96	48	7
STR	66	0	0
SI_	66	0	0	96	48	4
TAP	66	0	4
TAP	66	16	1
TAP	66	32	2
TAP	66	48	3
TAP	66	96	0
STR	66	192	7
SCR	66	192	7	96	48	3
STR	66	240	3
SCR	66	240	3	96	48	6
TAP	66	288	7
BRK	67	0	7
TAP	67	96	3
HLD	67	96	4	48
TAP	67	144	0
TAP	67	160	7
TAP	67	176	6
HLD	67	192	5	48
TAP	67	240	7
TAP	67	256	6
TAP	67	272	5
STR	67	288	4
SI_	67	288	4	96	48	1
STR	68	0	3
SI_	68	0	3	96	48	6
TAP	68	0	4
TAP	68	96	3
STR	68	96	4
SI_	68	96	4	96	48	0
TAP	68	192	3
TAP	68	192	4
BRK	68	288	1
BST	68	288	5
SCL	68	288	5	96	48	2
STR	69	0	1
SI_	69	0	1	96	48	5
TAP	69	0	5
TAP	69	16	0
TAP	69	32	7
TAP	69	48	6
TAP	69	96	1
STR	69	192	6
SCR	69	192	6	96	48	2
STR	69	240	2
SCR	69	240	2	96	48	5
TAP	69	288	6
BRK	70	0	6
TAP	70	96	7
TAP	70	112	0
TAP	70	128	1
TAP	70	144	2
TAP	70	192	7
TAP	70	208	6
TAP	70	224	5
TAP	70	240	4
STR	70	288	7
SI_	70	288	7	96	48	4
TAP	70	304	0
TAP	70	320	1
TAP	70	336	2
STR	71	0	7
SI_	71	0	7	96	48	2
STR	71	96	7
SI_	71	96	7	96	48	3
TAP	71	192	7
BST	71	288	2
SCR	71	288	2	96	48	5
BRK	71	288	6
TAP	72	0	2
STR	72	0	6
SI_	72	0	6	96	48	2
TAP	72	16	7
TAP	72	32	0
TAP	72	48	1
TAP	72	96	6
STR	72	192	1
SCL	72	192	1	96	48	5
STR	72	240	5
SCL	72	240	5	96	48	2
TAP	72	288	1
BRK	73	0	1
TAP	73	96	1
TAP	73	96	3
TAP	73	144	4
TAP	73	160	5
TAP	73	176	6
TAP	73	192	7
TAP	73	240	3
TAP	73	256	2
TAP	73	272	1
TAP	73	288	0
TAP	73	336	4
TAP	73	352	5
TAP	73	368	6
TAP	74	0	7
TAP	74	12	0
TAP	74	24	1
TAP	74	36	2
TAP	74	48	3
TAP	74	60	4
TAP	74	72	5
TAP	74	84	6
TAP	74	96	7
TAP	74	108	0
TAP	74	120	1
TAP	74	132	2
TAP	74	144	3
TAP	74	156	4
TAP	74	168	5
TAP	74	180	6
TAP	74	192	7
TAP	74	204	0
TAP	74	216	1
TAP	74	228	2
TAP	74	240	3
TAP	74	252	4
TAP	74	264	5
TAP	74	276	6
HLD	74	288	7	144
TAP	75	0	0
HLD	75	48	1	96
HLD	75	144	5	288
TAP	75	192	4
TAP	75	288	2
TAP	76	0	0
TAP	76	96	7
TAP	76	120	6
TAP	76	144	0
TAP	76	168	5
TAP	76	192	6
TAP	76	192	7
TAP	76	240	1
TAP	76	264	0
TAP	76	288	2
TAP	76	312	7
TAP	76	336	0
TAP	76	336	1
TAP	77	0	0
TAP	77	24	7
TAP	77	48	1
TAP	77	72	6
TAP	77	96	2
TAP	77	96	5
TAP	77	144	2
TAP	77	156	1
TAP	77	168	0
TAP	77	180	7
TAP	77	192	6
TAP	77	240	3
TAP	77	240	4
TAP	77	288	5
TAP	77	312	1
TAP	77	336	5
TAP	77	360	1
TAP	78	0	6
TAP	78	24	2
TAP	78	48	6
TAP	78	72	2
TAP	78	96	3
TAP	78	96	7
STR	78	144	0
SCL	78	144	0	96	48	5
TAP	78	144	4
TAP	78	240	4
TAP	78	256	3
TAP	78	272	2
TAP	78	288	1
TAP	78	336	4
HLD	79	0	3	48
HLD	79	0	5	48
HLD	79	96	6	48
HLD	79	96	7	48
TAP	79	192	4
TAP	79	216	1
TAP	79	240	6
TAP	79	264	2
TAP	79	288	5
TAP	79	312	0
HLD	79	336	4	72
HLD	80	24	6	72
HLD	80	96	0	72
HLD	80	168	2	64
HLD	80	232	4	56
BST	80	288	3
SCL	80	288	3	96	48	0
TAP	80	336	6
TAP	80	360	6
TAP	81	0	3
TAP	81	96	7
TAP	81	120	7
TAP	81	144	0
TAP	81	192	4
TAP	81	192	5
TAP	81	240	2
TAP	81	264	3
TAP	81	288	2
TAP	81	336	6
TAP	81	360	7
HLD	82	0	0	48
HLD	82	0	5	48
STR	82	96	4
SCR	82	96	4	96	48	7
TAP	82	144	1
TAP	82	168	1
TAP	82	192	4
TAP	82	288	0
TAP	82	312	0
TAP	82	336	7
TAP	83	0	2
TAP	83	48	5
TAP	83	72	4
TAP	83	96	5
TAP	83	144	1
TAP	83	168	0
HLD	83	192	2	48
HLD	83	192	7	48
TAP	83	288	5
TAP	83	312	4
TAP	83	336	6
TAP	84	0	2
TAP	84	24	3
TAP	84	48	1
TAP	84	96	5
TAP	84	96	7
TAP	84	144	3
TAP	84	144	4
TAP	84	192	2
TAP	84	216	3
TAP	84	240	0
TAP	84	288	5
TAP	84	312	4
TAP	84	336	7
TAP	85	0	0
TAP	85	0	2
TAP	85	48	3
TAP	85	48	4
HLD	85	96	1	72
BRK	85	96	2
BRK	85	168	0
BRK	85	240	5
HLD	85	240	6	72
BRK	85	312	7
HLD	86	0	0	0
BRK	86	0	4
HLD	86	72	3	0
BRK	86	72	7
BRK	86	144	1
BRK	86	144	6
TAP	86	240	7
TAP	86	264	0
BST	86	288	7
SI_	86	288	7	96	384	3
SLR	86	288	7	96	384	3
BST	88	96	2
SI_	88	96	2	96	384	6
SLR	88	96	2	96	384	6
BRK	88	96	6
BRK	89	288	5

T_REC_TAP	533
T_REC_BRK	43
T_REC_XTP	0
T_REC_HLD	106
T_REC_XHO	0
T_REC_STR	58
T_REC_BST	12
T_REC_XST	0
T_REC_TTP	0
T_REC_THO	0
T_REC_SLD	74
T_REC_ALL	826
T_NUM_TAP	591
T_NUM_BRK	55
T_NUM_HLD	106
T_NUM_SLD	74
T_NUM_ALL	826
T_JUDGE_TAP	646
T_JUDGE_HLD	171
T_JUDGE_SLD	74
T_JUDGE_ALL	891
TTM_EACHPAIRS	166
TTM_SCR_TAP	295500
TTM_SCR_BRK	143000
TTM_SCR_HLD	106000
TTM_SCR_SLD	111000
TTM_SCR_ALL	655500
TTM_SCR_S	630500
TTM_SCR_SS	650000
TTM_RAT_ACV	10084

