VERSION	0.00.00	1.03.00
FES_MODE	0
BPM_DEF	184.000	184.000	184.000	184.000
MET_DEF	4	4
RESOLUTION	384
CLK_DEF	384
COMPATIBLE_CODE	MA2

BPM	0	0	184.000
MET	0	0	4	3
MET	58	192	4	5
MET	59	288	4	3

BST	3	0	0
SCL	3	0	0	96	96	5
TAP	3	0	1
TAP	3	96	2
TAP	3	192	3
STR	3	288	4
SCL	3	288	4	96	96	1
TAP	4	0	5
TAP	4	96	6
STR	4	192	7
SCL	4	192	7	96	96	4
TAP	4	288	0
TAP	5	0	1
STR	5	96	2
SCL	5	96	2	96	96	7
TAP	5	192	3
TAP	5	288	4
HLD	6	0	0	288
TAP	6	96	2
TAP	6	192	2
HLD	6	288	4	288
TAP	7	0	2
TAP	7	96	2
HLD	7	192	0	288
TAP	7	288	3
TAP	8	0	3
HLD	8	96	7	192
TAP	8	192	4
TAP	8	288	4
BST	9	0	0
SI_	9	0	0	96	48	3
BRK	9	0	7
STR	9	144	7
SI_	9	144	7	96	48	2
STR	9	288	1
SI_	9	288	1	96	48	5
TAP	10	96	6
STR	10	192	7
SI_	10	192	7	96	48	4
STR	10	336	0
SI_	10	336	0	96	48	5
STR	11	96	6
SI_	11	96	6	96	48	2
STR	11	288	1
SCL	11	288	1	96	192	3
STR	12	192	6
SCR	12	192	6	96	192	4
HLD	13	96	1	384
TAP	13	192	3
TAP	13	288	4
TAP	14	0	5
TAP	14	96	6
STR	14	192	1
SI_	14	192	1	96	48	4
STR	14	192	6
SI_	14	192	6	96	48	3
TAP	15	0	2
TAP	15	0	5
TAP	15	96	4
TAP	15	96	6
TAP	15	192	6
TAP	15	192	7
TAP	15	288	1
TAP	15	288	7
TAP	16	0	1
TAP	16	0	2
TAP	16	96	2
TAP	16	96	4
TAP	16	192	5
TAP	16	192	6
TAP	16	288	2
TAP	16	288	3
STR	17	0	3
SCL	17	0	3	96	192	0
STR	17	0	4
SCR	17	0	4	96	192	7
TAP	18	0	7
TAP	18	48	7
TAP	18	96	6
TAP	18	144	6
TAP	18	192	5
TAP	18	240	5
TAP	18	288	4
TAP	18	336	4
TAP	19	0	3
TAP	19	48	3
TAP	19	96	2
STR	19	192	1
SI_	19	192	1	96	48	5
TAP	19	240	1
STR	19	336	7
SI_	19	336	7	96	48	3
TAP	20	0	7
TAP	20	96	0
TAP	20	144	0
STR	20	192	0
SI_	20	192	0	96	48	4
TAP	20	288	5
BRK	21	0	7
TAP	21	96	2
STR	21	96	5
SXR	21	96	5	96	288	2
TAP	22	96	0
TAP	22	192	3
TAP	22	192	4
TAP	22	288	4
TAP	22	288	6
STR	23	0	1
SLL	23	0	1	96	192	4
HLD	23	0	3	288
TAP	24	0	5
TAP	24	48	5
TAP	24	96	4
STR	24	96	6
SXL	24	96	6	96	288	1
TAP	25	96	3
TAP	25	192	3
TAP	25	192	4
TAP	25	288	2
TAP	25	336	3
TAP	26	0	4
STR	26	48	5
SCL	26	48	5	96	144	2
TAP	27	0	6
TAP	27	0	7
STR	27	96	0
SI_	27	96	0	96	48	4
STR	27	192	4
SSL	27	192	4	96	192	0
TAP	28	192	1
TAP	28	192	7
TAP	28	288	2
TAP	28	336	2
STR	29	0	1
SUL	29	0	1	96	192	4
TAP	29	0	3
TAP	29	192	6
TAP	29	288	7
TAP	30	0	5
TAP	30	0	6
TAP	30	96	1
TAP	30	144	1
TAP	30	192	0
STR	30	192	2
SUR	30	192	2	96	192	7
TAP	31	0	5
TAP	31	96	4
TAP	31	192	3
TAP	31	192	5
STR	31	288	2
SXR	31	288	2	96	288	7
STR	31	288	6
SXR	31	288	6	96	288	3
BRK	33	0	0
TAP	33	96	4
HLD	33	144	4	144
TAP	33	240	3
HLD	33	288	3	192
TAP	34	0	6
TAP	34	48	7
HLD	34	96	6	96
HLD	34	192	4	144
TAP	34	288	7
HLD	34	336	6	144
TAP	35	48	0
HLD	35	96	1	192
TAP	35	192	3
TAP	35	240	4
HLD	35	288	3	96
HLD	36	0	0	144
TAP	36	96	5
HLD	36	144	4	144
TAP	36	240	6
HLD	36	288	7	192
TAP	37	0	4
TAP	37	48	3
HLD	37	96	4	96
TAP	37	192	3
TAP	37	288	0
TAP	37	288	4
TAP	37	336	1
TAP	37	336	5
TAP	38	0	2
STR	38	0	6
SSL	38	0	6	96	192	2
HLD	39	0	1	144
TAP	39	96	3
HLD	39	144	3	144
TAP	39	240	4
HLD	39	288	4	192
TAP	40	0	6
TAP	40	48	5
HLD	40	96	6	96
HLD	40	192	2	144
TAP	40	288	0
HLD	40	336	0	144
TAP	41	48	7
HLD	41	96	7	192
TAP	41	192	5
TAP	41	240	4
HLD	41	288	5	96
HLD	42	0	1	144
TAP	42	96	5
HLD	42	144	6	144
TAP	42	240	4
HLD	42	288	3	192
TAP	43	0	0
TAP	43	48	7
TAP	43	96	0
TAP	43	192	1
TAP	43	240	2
TAP	43	288	3
TAP	43	336	4
TAP	44	0	2
TAP	44	0	5
TAP	44	48	2
TAP	44	48	5
HLD	44	96	3	48
HLD	44	96	4	48
HLD	44	168	4	48
HLD	44	168	5	48
HLD	44	240	2	48
HLD	44	240	3	48
STR	45	0	4
SCL	45	0	4	96	192	1
STR	45	288	0
SCL	45	288	0	96	192	5
STR	46	192	7
SCL	46	192	7	96	384	1
TAP	48	0	2
TAP	48	0	3
TAP	48	48	4
TAP	48	96	3
TAP	48	144	2
TAP	48	192	1
TAP	48	192	3
TAP	48	288	5
TAP	48	336	4
STR	49	0	5
SI_	49	0	5	96	48	7
TAP	49	192	0
TAP	49	192	1
TAP	49	240	7
TAP	49	288	6
TAP	49	336	5
TAP	50	0	4
TAP	50	0	6
TAP	50	96	1
TAP	50	144	0
STR	50	192	1
SI_	50	192	1	96	48	3
TAP	51	0	4
TAP	51	0	5
TAP	51	48	6
TAP	51	96	5
TAP	51	144	4
TAP	51	192	3
TAP	51	240	6
TAP	51	288	5
TAP	51	336	4
STR	52	0	4
SI_	52	0	4	96	48	0
STR	52	0	5
SI_	52	0	5	96	48	7
TAP	52	192	2
TAP	52	192	3
TAP	52	240	4
TAP	52	288	3
TAP	52	336	2
TAP	53	0	1
TAP	53	48	0
STR	53	96	0
SI_	53	96	0	96	48	4
STR	53	96	1
SI_	53	96	1	96	48	3
BRK	53	288	2
BRK	53	288	5
TAP	54	0	3
TAP	54	0	4
TAP	54	48	5
TAP	54	96	3
TAP	54	96	4
TAP	54	144	2
TAP	54	192	3
TAP	54	192	4
TAP	54	240	5
TAP	54	288	3
TAP	54	288	4
TAP	54	336	2
STR	55	0	3
SI_	55	0	3	96	48	0
STR	55	0	4
SI_	55	0	4	96	48	7
TAP	55	192	0
TAP	55	192	7
TAP	55	240	1
TAP	55	288	0
TAP	55	288	7
TAP	55	336	6
TAP	56	0	0
TAP	56	0	7
TAP	56	48	1
TAP	56	96	0
TAP	56	96	7
TAP	56	144	6
STR	56	192	0
SI_	56	192	0	96	48	3
STR	56	192	7
SI_	56	192	7	96	48	4
HLD	57	48	6	48
HLD	57	48	7	48
HLD	57	120	6	48
HLD	57	120	7	48
HLD	57	192	4	48
HLD	57	192	5	48
HLD	57	264	4	48
HLD	57	264	5	48
HLD	57	336	2	48
HLD	57	336	3	48
HLD	58	24	2	48
HLD	58	24	3	48
TAP	58	96	2
TAP	58	96	3
TAP	58	192	0
TAP	58	192	1
TAP	58	240	0
TAP	58	240	1
TAP	58	288	2
TAP	58	288	3
TAP	58	336	2
TAP	58	336	3
TAP	59	0	4
TAP	59	0	5
TAP	59	48	4
TAP	59	48	5
TAP	59	96	6
TAP	59	96	7
TAP	59	144	6
TAP	59	144	7
BRK	59	192	0
BRK	59	192	1
STR	59	288	0
SI_	59	288	0	96	768	4
TAP	60	192	6
TAP	61	96	2
TAP	62	0	7
BST	62	192	0
SI_	62	192	0	96	48	4
BST	62	192	7
SI_	62	192	7	96	48	3
TAP	63	48	1
TAP	63	48	6
STR	63	96	1
SI_	63	96	1	96	48	4
TAP	63	96	6
STR	63	192	5
SI_	63	192	5	96	48	0
STR	63	288	2
SI_	63	288	2	96	48	7
STR	64	0	6
SI_	64	0	6	96	48	3
TAP	64	96	0
TAP	64	192	1
TAP	64	192	6
STR	64	240	1
SI_	64	240	1	96	48	4
STR	64	240	6
SI_	64	240	6	96	48	3
TAP	65	48	2
HLD	65	48	5	96
HLD	65	144	6	96
TAP	65	240	7
HLD	65	288	7	96
TAP	66	0	4
STR	66	48	4
SI_	66	48	4	96	48	0
TAP	66	144	7
STR	66	192	7
SI_	66	192	7	96	48	3
TAP	66	288	2
STR	66	336	2
SI_	66	336	2	96	48	6
STR	67	96	7
SCL	67	96	7	96	48	4
TAP	67	192	2
STR	67	240	2
SCL	67	240	2	96	48	7
TAP	67	336	6
HLD	68	0	6	96
HLD	68	96	4	96
HLD	68	192	3	96
STR	68	288	1
SCR	68	288	1	96	48	4
TAP	69	0	6
STR	69	48	6
SCR	69	48	6	96	48	1
TAP	69	144	2
HLD	69	192	2	96
HLD	69	288	4	96
HLD	70	0	6	96
STR	70	96	7
SCL	70	96	7	96	48	4
TAP	70	192	2
STR	70	240	2
SUL	70	240	2	96	48	6
TAP	70	336	5
HLD	71	0	5	96
HLD	71	96	3	96
HLD	71	192	1	96
STR	71	288	0
SCR	71	288	0	96	48	3
TAP	72	0	5
STR	72	48	5
SUR	72	48	5	96	48	1
TAP	72	144	2
HLD	72	192	2	96
HLD	72	288	4	96
HLD	73	0	6	96
STR	73	96	7
SCL	73	96	7	96	192	0
STR	74	0	4
SCR	74	0	4	96	192	3
BRK	74	288	7
STR	75	0	6
SI_	75	0	6	96	48	1
STR	75	96	2
SI_	75	96	2	96	48	5
STR	75	192	7
SI_	75	192	7	96	48	2
STR	75	288	3
SI_	75	288	3	96	48	0
STR	76	0	6
SI_	76	0	6	96	48	3
TAP	76	96	1
TAP	76	192	5
TAP	76	240	4
TAP	76	288	3
TAP	76	336	2
TAP	77	0	1
TAP	77	48	0
HLD	77	96	7	72
HLD	77	168	5	72
TAP	77	240	4
TAP	77	288	3
TAP	77	288	4
STR	78	0	1
SI_	78	0	1	96	48	4
STR	78	0	5
SI_	78	0	5	96	48	0
TAP	78	192	0
TAP	78	192	7
STR	78	288	2
SI_	78	288	2	96	48	7
STR	78	288	6
SI_	78	288	6	96	48	3
HLD	79	96	5	72
HLD	79	168	3	72
TAP	79	240	2
HLD	79	288	1	72
HLD	79	360	4	72
TAP	80	48	5
STR	80	96	7
SI_	80	96	7	96	48	3
BRK	80	288	0
BRK	80	288	1
TAP	80	336	0
TAP	80	336	1
STR	81	0	0
SI_	81	0	0	96	48	4
STR	81	0	1
SI_	81	0	1	96	48	4
TAP	81	192	6
TAP	81	192	7
TAP	81	240	6
TAP	81	240	7
STR	81	288	6
SI_	81	288	6	96	48	3
STR	81	288	7
SI_	81	288	7	96	48	3
TAP	82	96	0
TAP	82	96	1
TAP	82	144	0
TAP	82	144	1
STR	82	192	0
SI_	82	192	0	96	48	5
STR	82	192	1
SI_	82	192	1	96	48	4
TAP	83	0	6
TAP	83	0	7
TAP	83	48	6
TAP	83	48	7
STR	83	96	6
SI_	83	96	6	96	48	3
STR	83	96	7
SI_	83	96	7	96	48	2
TAP	83	288	0
STR	83	288	7
SCL	83	288	7	96	48	4
TAP	83	336	0
TAP	84	0	1
TAP	84	48	1
TAP	84	96	2
TAP	84	144	2
STR	84	192	3
SCL	84	192	3	96	48	0
TAP	84	192	4
TAP	84	240	4
TAP	84	288	5
TAP	84	336	5
TAP	85	0	6
TAP	85	48	6
HLD	85	96	0	48
HLD	85	96	7	48
HLD	85	168	0	48
HLD	85	168	7	48
HLD	85	240	0	48
HLD	85	240	7	48
HLD	85	312	0	48
HLD	85	312	7	48
HLD	86	0	0	48
HLD	86	0	7	48
HLD	86	72	0	48
HLD	86	72	7	48
BRK	86	144	0
BRK	86	144	7
TAP	86	240	4
TAP	86	264	3
BST	86	288	4
SCR	86	288	4	96	1056	3
BRK	89	288	7

T_REC_TAP	266
T_REC_BRK	13
T_REC_XTP	0
T_REC_HLD	79
T_REC_XHO	0
T_REC_STR	81
T_REC_BST	5
T_REC_XST	0
T_REC_TTP	0
T_REC_THO	0
T_REC_SLD	86
T_REC_ALL	530
T_NUM_TAP	347
T_NUM_BRK	18
T_NUM_HLD	79
T_NUM_SLD	86
T_NUM_ALL	530
T_JUDGE_TAP	365
T_JUDGE_HLD	175
T_JUDGE_SLD	86
T_JUDGE_ALL	626
TTM_EACHPAIRS	99
TTM_SCR_TAP	173500
TTM_SCR_BRK	46800
TTM_SCR_HLD	79000
TTM_SCR_SLD	129000
TTM_SCR_ALL	428300
TTM_SCR_S	413750
TTM_SCR_SS	426500
TTM_RAT_ACV	10042

