VERSION	0.00.00	1.03.00
FES_MODE	0
BPM_DEF	184.000	184.000	184.000	184.000
MET_DEF	4	4
RESOLUTION	384
CLK_DEF	384
COMPATIBLE_CODE	MA2

BPM	0	0	184.000
MET	0	0	4	3
MET	58	192	4	5
MET	59	288	4	3

HLD	3	0	5	288
HLD	3	288	4	288
HLD	4	192	3	288
TAP	5	96	2
HLD	6	0	1	288
HLD	6	288	0	288
HLD	7	192	7	288
BRK	8	96	6
HLD	9	0	2	480
TAP	9	96	3
TAP	9	192	3
TAP	9	288	4
TAP	10	0	4
TAP	10	96	3
HLD	10	192	5	480
TAP	10	288	4
TAP	11	0	4
TAP	11	96	3
TAP	11	192	3
TAP	11	288	4
HLD	12	0	1	480
TAP	12	96	0
TAP	12	192	0
TAP	12	288	7
TAP	13	0	7
TAP	13	96	0
HLD	13	192	6	480
TAP	13	288	7
TAP	14	0	7
TAP	14	96	0
TAP	14	192	0
TAP	14	288	7
TAP	15	0	6
TAP	15	96	6
TAP	15	192	6
TAP	15	288	7
TAP	16	0	7
TAP	16	96	7
TAP	16	192	0
TAP	16	288	0
TAP	17	0	0
TAP	17	96	1
TAP	17	192	1
TAP	17	288	1
TAP	18	0	2
TAP	18	48	2
TAP	18	96	3
TAP	18	192	2
TAP	18	192	3
TAP	18	288	5
TAP	18	336	5
TAP	19	0	4
TAP	19	96	4
TAP	19	96	5
TAP	19	192	1
TAP	19	240	1
TAP	19	288	0
TAP	20	0	0
TAP	20	0	1
TAP	20	96	6
TAP	20	144	6
TAP	20	192	7
BRK	20	288	6
BRK	20	288	7
STR	21	0	0
SI_	21	0	0	96	96	3
STR	21	288	4
SI_	21	288	4	96	96	7
TAP	22	192	0
TAP	22	288	1
TAP	23	0	2
TAP	23	96	3
TAP	23	96	4
TAP	23	192	3
TAP	23	192	4
BRK	23	288	2
BRK	23	288	5
STR	24	0	6
SI_	24	0	6	96	96	1
STR	24	288	2
SI_	24	288	2	96	96	5
TAP	25	192	6
TAP	25	288	7
TAP	26	0	0
TAP	26	96	0
TAP	26	96	7
TAP	26	192	1
TAP	26	192	6
BRK	26	288	2
BRK	26	288	5
HLD	27	0	5	192
TAP	27	96	4
TAP	27	192	4
BRK	27	288	3
HLD	28	192	1	192
TAP	28	288	0
TAP	29	0	0
HLD	29	96	6	192
TAP	29	192	7
TAP	29	288	7
STR	30	0	6
SI_	30	0	6	96	96	2
STR	30	288	1
SI_	30	288	1	96	96	5
TAP	31	192	6
TAP	31	288	7
TAP	32	0	0
TAP	32	96	1
TAP	32	192	2
BRK	32	288	3
BRK	32	288	4
TAP	33	0	5
TAP	33	96	5
TAP	33	192	4
TAP	33	192	6
TAP	33	288	2
TAP	34	0	2
TAP	34	96	1
TAP	34	96	3
TAP	34	192	4
TAP	34	288	5
TAP	35	0	6
TAP	35	96	7
TAP	35	192	0
TAP	35	288	0
TAP	35	288	7
TAP	36	0	1
TAP	36	96	1
TAP	36	192	0
TAP	36	192	2
TAP	36	288	6
TAP	37	0	6
TAP	37	96	5
TAP	37	96	7
TAP	37	192	0
TAP	37	288	1
TAP	38	0	2
TAP	38	96	3
TAP	38	192	4
TAP	38	288	3
TAP	38	288	4
TAP	39	0	5
TAP	39	48	5
TAP	39	96	5
TAP	39	192	4
TAP	39	192	6
TAP	39	288	2
TAP	39	336	2
TAP	40	0	2
TAP	40	96	1
TAP	40	96	3
TAP	40	192	0
TAP	40	288	7
TAP	41	0	6
TAP	41	96	5
TAP	41	192	4
BRK	41	288	3
BRK	41	288	4
TAP	42	0	1
TAP	42	48	1
TAP	42	96	1
TAP	42	192	0
TAP	42	192	2
TAP	42	288	6
TAP	42	336	6
TAP	43	0	6
TAP	43	96	5
TAP	43	96	7
TAP	43	192	4
TAP	43	288	3
TAP	44	0	2
TAP	44	96	1
TAP	44	192	0
BRK	44	288	0
BRK	44	288	7
HLD	45	0	6	288
HLD	45	288	5	288
HLD	46	192	4	288
TAP	47	96	3
HLD	48	0	2	192
TAP	48	192	4
HLD	48	288	5	192
TAP	49	96	3
HLD	49	192	2	192
TAP	50	0	4
HLD	50	96	5	96
TAP	50	192	4
BRK	50	288	4
BRK	50	288	5
HLD	51	0	6	192
TAP	51	192	0
HLD	51	288	1	192
TAP	52	96	7
HLD	52	192	6	192
TAP	53	0	0
HLD	53	96	1	96
TAP	53	192	0
BRK	53	288	0
BRK	53	288	1
TAP	54	0	2
TAP	54	96	2
TAP	54	192	2
TAP	54	192	3
TAP	54	288	5
TAP	55	0	5
TAP	55	96	4
TAP	55	96	5
TAP	55	192	2
TAP	55	288	2
TAP	56	0	2
TAP	56	0	3
TAP	56	96	5
TAP	56	192	5
BRK	56	288	4
BRK	56	288	6
STR	57	0	7
SI_	57	0	7	96	96	4
STR	57	288	3
SI_	57	288	3	96	72	0
STR	58	192	7
SXL	58	192	7	96	288	4
HLD	59	288	3	288
HLD	60	192	2	288
HLD	61	96	1	288
BRK	62	0	0
TAP	62	288	6
TAP	62	288	7
TAP	63	0	0
TAP	63	0	5
TAP	63	96	0
TAP	63	96	5
TAP	63	192	0
TAP	63	192	1
TAP	63	288	2
TAP	63	288	7
TAP	64	0	2
TAP	64	0	7
STR	64	96	0
SI_	64	96	0	96	96	5
STR	64	96	1
SI_	64	96	1	96	96	4
STR	65	0	6
SI_	65	0	6	96	96	3
STR	65	0	7
SI_	65	0	7	96	96	2
TAP	65	288	4
TAP	65	288	5
TAP	66	0	3
TAP	66	0	6
TAP	66	96	2
TAP	66	96	7
TAP	66	192	0
TAP	66	192	1
TAP	66	288	6
TAP	66	288	7
TAP	67	0	0
TAP	67	0	1
STR	67	96	6
SI_	67	96	6	96	96	3
STR	67	96	7
SI_	67	96	7	96	96	2
STR	68	0	0
SI_	68	0	0	96	96	5
STR	68	0	1
SI_	68	0	1	96	96	4
TAP	68	288	2
TAP	68	288	3
TAP	69	0	1
TAP	69	0	4
TAP	69	96	1
TAP	69	96	4
TAP	69	192	4
TAP	69	192	5
TAP	69	288	3
TAP	69	288	6
TAP	70	0	3
TAP	70	0	6
STR	70	96	4
SI_	70	96	4	96	96	1
STR	70	96	5
SI_	70	96	5	96	96	0
STR	71	0	2
SI_	71	0	2	96	96	7
STR	71	0	3
SI_	71	0	3	96	96	6
TAP	71	288	0
TAP	71	288	1
TAP	72	0	2
TAP	72	0	7
TAP	72	96	3
TAP	72	96	6
TAP	72	192	4
TAP	72	192	5
TAP	72	288	2
TAP	72	288	3
TAP	73	0	4
TAP	73	0	5
STR	73	96	2
SI_	73	96	2	96	96	7
STR	73	96	3
SI_	73	96	3	96	96	6
STR	74	0	4
SI_	74	0	4	96	96	1
STR	74	0	5
SI_	74	0	5	96	96	0
TAP	74	288	7
TAP	75	0	6
TAP	75	96	5
TAP	75	192	4
TAP	75	288	3
TAP	75	288	5
TAP	76	0	2
TAP	76	0	6
TAP	76	96	7
TAP	76	192	0
TAP	76	288	1
HLD	77	0	2	192
TAP	77	192	3
TAP	77	288	4
TAP	78	0	5
TAP	78	96	6
TAP	78	192	7
TAP	78	288	0
TAP	78	288	6
TAP	79	0	1
TAP	79	0	5
TAP	79	96	4
TAP	79	192	3
TAP	79	288	2
HLD	80	0	1	192
TAP	80	192	0
TAP	80	288	1
TAP	80	336	1
TAP	81	0	0
TAP	81	96	2
TAP	81	96	7
TAP	81	192	6
TAP	81	240	6
TAP	81	288	7
TAP	82	0	0
TAP	82	0	5
TAP	82	96	4
TAP	82	192	3
TAP	82	288	2
TAP	83	0	1
TAP	83	96	0
TAP	83	192	7
TAP	83	288	6
TAP	83	336	6
TAP	84	0	7
TAP	84	96	0
TAP	84	96	5
TAP	84	192	1
TAP	84	240	1
TAP	84	288	0
TAP	85	0	2
TAP	85	0	7
TAP	85	96	4
TAP	85	144	4
TAP	85	192	3
TAP	85	288	2
TAP	85	288	5
TAP	86	0	0
TAP	86	48	0
TAP	86	96	7
TAP	86	192	1
TAP	86	192	6
HLD	86	288	2	288
HLD	87	192	3	288
HLD	88	96	4	288
HLD	89	0	5	288
BRK	89	288	4

T_REC_TAP	267
T_REC_BRK	22
T_REC_XTP	0
T_REC_HLD	33
T_REC_XHO	0
T_REC_STR	25
T_REC_BST	0
T_REC_XST	0
T_REC_TTP	0
T_REC_THO	0
T_REC_SLD	25
T_REC_ALL	372
T_NUM_TAP	292
T_NUM_BRK	22
T_NUM_HLD	33
T_NUM_SLD	25
T_NUM_ALL	372
T_JUDGE_TAP	314
T_JUDGE_HLD	184
T_JUDGE_SLD	25
T_JUDGE_ALL	523
TTM_EACHPAIRS	71
TTM_SCR_TAP	146000
TTM_SCR_BRK	57200
TTM_SCR_HLD	33000
TTM_SCR_SLD	37500
TTM_SCR_ALL	273700
TTM_SCR_S	263400
TTM_SCR_SS	271500
TTM_RAT_ACV	10081

