VERSION	0.00.00	1.03.00
FES_MODE	0
BPM_DEF	184.000	184.000	184.000	184.000
MET_DEF	4	4
RESOLUTION	384
CLK_DEF	384
COMPATIBLE_CODE	MA2

BPM	0	0	184.000
MET	0	0	4	3
MET	58	192	4	5
MET	59	288	4	3

HLD	3	0	0	576
HLD	6	0	7	576
TAP	9	0	0
TAP	9	192	0
TAP	9	288	0
TAP	10	96	0
TAP	10	192	0
TAP	11	0	0
TAP	11	96	0
TAP	11	96	7
TAP	11	288	0
TAP	12	0	7
TAP	12	192	7
TAP	12	288	7
TAP	13	96	7
TAP	13	192	7
TAP	14	0	7
TAP	14	96	0
TAP	14	96	7
TAP	14	288	7
TAP	15	0	0
TAP	15	96	0
TAP	15	192	0
TAP	15	288	1
TAP	16	0	1
TAP	16	96	1
TAP	16	192	2
TAP	16	288	2
TAP	17	0	2
HLD	17	96	3	192
TAP	18	0	4
TAP	18	96	4
TAP	18	192	4
TAP	18	288	5
TAP	19	0	5
TAP	19	96	5
TAP	19	192	6
TAP	19	288	6
TAP	20	0	6
TAP	20	96	7
TAP	20	192	7
BRK	20	288	7
TAP	21	0	0
TAP	21	192	0
TAP	22	0	0
TAP	22	96	0
TAP	22	192	1
TAP	23	0	1
TAP	23	192	0
TAP	23	192	1
TAP	23	288	0
TAP	23	288	1
TAP	24	0	2
TAP	24	192	2
TAP	25	0	2
TAP	25	96	2
TAP	25	192	3
TAP	26	0	3
TAP	26	192	3
TAP	26	192	4
TAP	26	288	3
TAP	26	288	4
TAP	27	0	4
TAP	27	192	4
TAP	28	0	4
TAP	28	96	4
TAP	28	192	5
TAP	29	0	5
TAP	29	192	4
TAP	29	192	5
TAP	29	288	4
TAP	29	288	5
TAP	30	0	6
TAP	30	192	6
TAP	31	0	6
TAP	31	96	6
TAP	31	192	7
TAP	32	0	7
BRK	32	192	0
BRK	32	192	7
TAP	33	0	7
TAP	33	96	7
TAP	33	288	7
TAP	34	0	7
TAP	34	96	7
TAP	34	192	6
TAP	34	288	6
TAP	35	96	6
TAP	35	192	6
TAP	35	288	6
TAP	36	0	5
TAP	36	96	5
TAP	36	288	5
TAP	37	0	5
TAP	37	96	5
TAP	37	192	4
TAP	37	288	4
TAP	38	96	4
TAP	38	192	4
TAP	38	288	4
HLD	39	0	3	192
TAP	40	0	3
TAP	40	96	3
HLD	40	192	2	192
TAP	41	192	2
TAP	41	288	2
TAP	42	0	1
TAP	42	96	1
TAP	42	192	1
TAP	42	288	0
TAP	43	0	0
TAP	43	96	0
TAP	43	192	7
TAP	43	288	7
TAP	44	0	7
TAP	44	96	0
TAP	44	96	7
TAP	44	192	0
TAP	44	192	7
TAP	44	288	0
TAP	44	288	7
HLD	45	0	1	576
HLD	45	0	6	576
TAP	48	0	0
TAP	48	96	0
TAP	48	192	0
TAP	49	0	0
TAP	49	48	0
TAP	49	96	0
TAP	49	192	1
TAP	49	288	1
TAP	50	0	1
TAP	50	192	1
TAP	50	240	1
TAP	50	288	1
TAP	51	0	2
TAP	51	96	2
TAP	51	192	2
TAP	52	0	2
TAP	52	48	2
TAP	52	96	2
TAP	52	192	3
TAP	52	288	3
TAP	53	0	3
TAP	53	192	3
TAP	53	240	3
BRK	53	288	3
TAP	54	0	4
TAP	54	96	4
TAP	54	192	3
TAP	54	192	4
TAP	55	0	4
TAP	55	48	3
TAP	55	96	4
TAP	55	192	5
TAP	55	288	5
TAP	56	0	4
TAP	56	0	5
TAP	56	192	5
TAP	56	240	4
TAP	56	288	5
STR	57	0	6
SI_	57	0	6	96	480	2
STR	59	288	0
SI_	59	288	0	96	480	4
TAP	62	288	3
TAP	63	0	3
TAP	63	96	4
TAP	63	192	4
TAP	63	288	3
TAP	63	336	4
TAP	64	0	3
TAP	64	96	4
TAP	64	192	4
TAP	64	288	3
TAP	64	288	5
TAP	65	0	3
TAP	65	0	5
TAP	65	96	4
TAP	65	144	3
TAP	65	192	4
HLD	65	288	3	192
HLD	65	288	5	192
TAP	66	288	3
TAP	66	336	4
TAP	67	0	3
HLD	67	96	2	192
HLD	67	96	4	192
TAP	68	96	4
TAP	68	144	3
TAP	68	192	4
TAP	68	288	3
TAP	69	0	3
TAP	69	96	4
TAP	69	192	4
TAP	69	288	3
TAP	69	336	3
TAP	70	0	3
TAP	70	0	4
TAP	70	96	2
TAP	70	192	2
TAP	70	288	1
TAP	71	0	1
TAP	71	96	0
TAP	71	144	0
TAP	71	192	0
TAP	71	192	7
TAP	71	288	6
TAP	72	0	6
TAP	72	96	5
TAP	72	192	5
TAP	72	288	4
TAP	72	336	4
TAP	73	0	3
TAP	73	0	4
TAP	73	96	5
TAP	73	192	5
TAP	73	288	6
TAP	74	0	6
TAP	74	96	7
TAP	74	144	7
TAP	74	192	0
TAP	74	192	7
HLD	74	288	0	192
HLD	74	288	1	192
TAP	75	288	2
TAP	75	336	3
TAP	76	0	2
HLD	76	96	2	192
HLD	76	96	3	192
TAP	77	96	5
TAP	77	144	4
TAP	77	192	5
HLD	77	288	4	192
HLD	77	288	5	192
TAP	78	288	6
TAP	78	336	7
TAP	79	0	6
HLD	79	96	6	192
HLD	79	96	7	192
TAP	80	96	0
TAP	80	144	7
TAP	80	192	0
TAP	80	288	7
TAP	81	0	7
TAP	81	96	0
TAP	81	192	0
TAP	81	288	1
TAP	82	0	1
TAP	82	96	2
TAP	82	192	2
TAP	82	288	3
TAP	83	0	3
TAP	83	96	4
TAP	83	192	4
TAP	83	288	5
TAP	83	336	5
TAP	84	0	5
TAP	84	96	6
TAP	84	144	6
TAP	84	192	6
TAP	84	288	7
TAP	84	336	7
TAP	85	0	7
TAP	85	96	0
TAP	85	144	0
TAP	85	192	0
TAP	85	240	0
TAP	85	288	0
TAP	86	0	7
TAP	86	48	7
TAP	86	96	7
TAP	86	144	7
TAP	86	192	7
HLD	86	288	0	576
HLD	86	288	7	576
STR	89	288	0
SI_	89	288	0	96	480	4

T_REC_TAP	247
T_REC_BRK	4
T_REC_XTP	0
T_REC_HLD	21
T_REC_XHO	0
T_REC_STR	3
T_REC_BST	0
T_REC_XST	0
T_REC_TTP	0
T_REC_THO	0
T_REC_SLD	3
T_REC_ALL	278
T_NUM_TAP	250
T_NUM_BRK	4
T_NUM_HLD	21
T_NUM_SLD	3
T_NUM_ALL	278
T_JUDGE_TAP	254
T_JUDGE_HLD	132
T_JUDGE_SLD	3
T_JUDGE_ALL	389
TTM_EACHPAIRS	28
TTM_SCR_TAP	125000
TTM_SCR_BRK	10400
TTM_SCR_HLD	21000
TTM_SCR_SLD	4500
TTM_SCR_ALL	160900
TTM_SCR_S	155700
TTM_SCR_SS	160500
TTM_RAT_ACV	10024

