VERSION	0.00.00	1.03.00
FES_MODE	0
BPM_DEF	200.000	200.000	200.000	200.000
MET_DEF	4	4
RESOLUTION	384
CLK_DEF	384
COMPATIBLE_CODE	MA2

BPM	0	0	200.000

HLD	1	0	2	96
TAP	1	96	0
TAP	1	192	1
TAP	1	240	1
TAP	1	288	7
TAP	1	336	7
TAP	2	0	0
TAP	2	96	6
TAP	2	96	7
TAP	2	192	6
TAP	2	240	6
TAP	2	288	5
TAP	2	288	7
HLD	3	0	5	96
TAP	3	96	7
TAP	3	192	6
TAP	3	240	6
TAP	3	288	0
TAP	3	336	0
TAP	4	0	7
TAP	4	96	0
TAP	4	96	1
TAP	4	192	1
TAP	4	240	1
TAP	4	288	3
TAP	4	336	3
HLD	5	0	1	96
TAP	5	96	3
TAP	5	192	2
TAP	5	240	2
TAP	5	288	4
TAP	5	336	4
TAP	6	0	3
TAP	6	96	4
TAP	6	96	5
TAP	6	192	5
TAP	6	240	5
TAP	6	288	4
TAP	6	288	6
HLD	7	0	6	96
TAP	7	96	4
TAP	7	192	5
TAP	7	240	5
TAP	7	288	3
TAP	7	336	3
TAP	8	0	3
TAP	8	0	4
TAP	8	48	3
TAP	8	48	4
TAP	8	96	2
TAP	8	96	5
TAP	8	192	0
TAP	8	192	7
BRK	8	288	1
BRK	8	288	6
TAP	9	0	0
TAP	9	0	5
TAP	9	48	7
STR	9	96	6
SI_	9	96	6	96	48	3
TAP	9	144	6
STR	9	192	7
SI_	9	192	7	96	48	2
TAP	9	240	7
TAP	9	288	4
TAP	9	336	4
TAP	10	0	0
TAP	10	0	5
TAP	10	48	7
TAP	10	96	6
TAP	10	144	0
TAP	10	144	5
TAP	10	192	6
TAP	10	192	7
TAP	10	240	6
TAP	10	240	7
BRK	10	288	0
BRK	10	288	5
TAP	11	0	2
TAP	11	0	7
TAP	11	48	0
STR	11	96	1
SI_	11	96	1	96	48	4
TAP	11	144	1
STR	11	192	0
SI_	11	192	0	96	48	5
TAP	11	240	0
TAP	11	288	3
TAP	11	336	3
TAP	12	0	2
TAP	12	0	7
TAP	12	48	0
TAP	12	96	1
TAP	12	144	2
TAP	12	144	7
TAP	12	192	6
TAP	12	240	5
TAP	12	288	0
TAP	12	336	1
TAP	13	0	0
TAP	13	0	5
TAP	13	48	7
STR	13	96	6
SI_	13	96	6	96	48	3
TAP	13	144	6
STR	13	192	7
SI_	13	192	7	96	48	2
TAP	13	240	7
TAP	13	288	4
TAP	13	336	4
TAP	14	0	0
TAP	14	0	5
TAP	14	48	7
TAP	14	96	6
TAP	14	144	0
TAP	14	144	5
TAP	14	192	6
TAP	14	192	7
TAP	14	240	6
TAP	14	240	7
BRK	14	288	0
BRK	14	288	5
TAP	15	0	2
TAP	15	0	7
TAP	15	48	0
STR	15	96	1
SI_	15	96	1	96	48	4
TAP	15	144	1
STR	15	192	0
SI_	15	192	0	96	48	5
TAP	15	240	0
TAP	15	288	3
TAP	15	336	3
TAP	16	0	2
TAP	16	0	7
TAP	16	48	0
TAP	16	96	1
TAP	16	144	2
TAP	16	144	7
TAP	16	240	4
TAP	16	288	3
TAP	16	336	2
TAP	16	336	5
TAP	17	0	1
TAP	17	0	6
TAP	17	48	0
STR	17	96	7
SI_	17	96	7	96	48	4
TAP	17	144	0
STR	17	192	7
SI_	17	192	7	96	48	2
STR	17	288	7
SXR	17	288	7	96	192	2
TAP	18	0	7
TAP	18	96	1
TAP	18	192	0
TAP	18	288	7
TAP	18	336	0
TAP	19	0	1
TAP	19	0	4
STR	19	48	2
SUL	19	48	2	96	72	6
STR	19	48	3
SUL	19	48	3	96	72	6
TAP	19	144	2
TAP	19	144	3
TAP	19	288	7
TAP	19	336	0
TAP	20	0	2
TAP	20	0	3
TAP	20	48	1
TAP	20	96	4
TAP	20	96	5
TAP	20	144	6
TAP	20	192	2
TAP	20	192	3
BRK	20	288	7
TAP	21	0	1
TAP	21	0	4
TAP	21	48	7
STR	21	96	0
SI_	21	96	0	96	48	3
TAP	21	144	7
STR	21	192	0
SI_	21	192	0	96	48	5
STR	21	288	0
SXL	21	288	0	96	192	5
TAP	22	0	0
TAP	22	96	7
HLD	22	144	7	144
TAP	22	288	4
TAP	22	336	3
TAP	23	0	2
STR	23	0	6
SI_	23	0	6	96	48	3
STR	23	96	7
SI_	23	96	7	96	48	2
TAP	23	192	4
TAP	23	240	5
TAP	23	288	1
TAP	23	288	6
TAP	23	336	2
TAP	24	0	3
TAP	24	0	7
STR	24	96	1
SI_	24	96	1	96	48	4
STR	24	96	5
SI_	24	96	5	96	48	0
TAP	24	192	1
TAP	24	192	5
BRK	24	288	2
BRK	24	288	6
TAP	25	0	1
TAP	25	0	5
TAP	25	48	7
STR	25	96	0
SI_	25	96	0	96	48	3
TAP	25	144	7
STR	25	192	0
SI_	25	192	0	96	48	5
STR	25	288	0
SXL	25	288	0	96	192	5
TAP	26	0	0
TAP	26	96	6
TAP	26	192	7
TAP	26	288	0
TAP	26	336	7
TAP	27	0	3
TAP	27	0	6
STR	27	48	4
SUR	27	48	4	96	72	1
STR	27	48	5
SUR	27	48	5	96	72	1
TAP	27	144	4
TAP	27	144	5
TAP	27	288	0
TAP	27	336	7
TAP	28	0	4
TAP	28	0	5
TAP	28	48	6
TAP	28	96	2
TAP	28	96	3
TAP	28	144	1
TAP	28	192	4
TAP	28	192	5
BRK	28	288	0
TAP	29	0	3
TAP	29	0	6
TAP	29	48	0
STR	29	96	7
SI_	29	96	7	96	48	4
TAP	29	144	0
STR	29	192	7
SI_	29	192	7	96	48	2
STR	29	288	7
SXR	29	288	7	96	192	2
TAP	30	0	7
TAP	30	96	2
TAP	30	192	0
TAP	30	240	1
TAP	30	288	4
TAP	30	336	3
STR	31	0	2
SI_	31	0	2	96	48	6
SI_	31	0	2	96	48	7
TAP	31	96	2
STR	31	192	4
SI_	31	192	4	96	48	0
STR	31	288	4
SXL	31	288	4	96	288	0
SXR	31	288	4	96	288	0
HLD	33	0	5	96
TAP	33	96	4
TAP	33	192	3
TAP	33	240	3
TAP	33	288	4
TAP	33	336	4
HLD	34	0	2	96
TAP	34	96	3
TAP	34	192	2
TAP	34	240	3
TAP	34	288	1
TAP	34	288	4
HLD	35	0	2	96
TAP	35	96	3
TAP	35	192	4
TAP	35	240	4
TAP	35	288	3
TAP	35	336	3
HLD	36	0	5	96
TAP	36	96	4
TAP	36	192	6
TAP	36	240	6
TAP	36	288	4
TAP	36	336	4
HLD	37	0	6	96
TAP	37	96	4
TAP	37	192	3
TAP	37	240	3
TAP	37	288	4
TAP	37	336	4
HLD	38	0	1	96
TAP	38	96	3
TAP	38	192	2
TAP	38	240	3
TAP	38	288	1
TAP	38	288	4
HLD	39	0	1	96
TAP	39	96	3
TAP	39	192	4
TAP	39	240	4
TAP	39	288	3
TAP	39	336	3
TAP	40	0	1
TAP	40	0	6
TAP	40	48	2
TAP	40	48	5
TAP	40	96	3
TAP	40	96	4
STR	40	192	1
SI_	40	192	1	96	48	4
STR	40	192	6
SI_	40	192	6	96	48	3
BRK	40	288	1
BRK	40	288	6
STR	41	0	0
SI_	41	0	0	96	48	4
TAP	41	0	5
TAP	41	96	0
STR	41	96	6
SI_	41	96	6	96	48	3
STR	41	192	1
SI_	41	192	1	96	48	4
TAP	41	192	6
TAP	41	288	1
STR	41	288	7
SI_	41	288	7	96	48	3
STR	42	0	0
SI_	42	0	0	96	48	4
TAP	42	0	7
TAP	42	96	0
STR	42	96	6
SI_	42	96	6	96	48	3
TAP	42	192	2
TAP	42	192	6
BRK	42	288	0
BRK	42	288	4
TAP	43	0	2
STR	43	0	7
SI_	43	0	7	96	48	3
STR	43	96	1
SI_	43	96	1	96	48	4
TAP	43	96	7
TAP	43	192	1
STR	43	192	6
SI_	43	192	6	96	48	3
TAP	43	288	6
STR	43	288	7
SI_	43	288	7	96	48	2
STR	44	0	5
SI_	44	0	5	96	48	1
TAP	44	0	7
STR	44	96	0
SI_	44	96	0	96	48	4
TAP	44	96	5
TAP	44	192	0
TAP	44	192	6
TAP	44	288	3
TAP	44	288	5
TAP	45	0	2
STR	45	0	7
SI_	45	0	7	96	48	3
STR	45	96	1
SI_	45	96	1	96	48	4
TAP	45	96	7
TAP	45	192	1
STR	45	192	6
SI_	45	192	6	96	48	3
STR	45	288	0
SI_	45	288	0	96	48	4
TAP	45	288	6
TAP	46	0	0
STR	46	0	7
SI_	46	0	7	96	48	3
STR	46	96	1
SI_	46	96	1	96	48	4
TAP	46	96	7
TAP	46	192	1
TAP	46	192	5
BRK	46	288	3
BRK	46	288	7
STR	47	0	0
SI_	47	0	0	96	48	4
TAP	47	0	5
TAP	47	96	0
STR	47	96	6
SI_	47	96	6	96	48	3
STR	47	192	1
SI_	47	192	1	96	48	4
TAP	47	192	6
STR	47	288	0
SI_	47	288	0	96	48	5
TAP	47	288	1
TAP	48	0	0
STR	48	0	2
SI_	48	0	2	96	48	6
TAP	48	96	2
TAP	48	96	7
TAP	48	192	0
TAP	48	216	1
TAP	48	240	2
TAP	48	264	3
TAP	48	288	4
TAP	48	312	5
TAP	48	336	6
TAP	48	360	7
TAP	49	0	0
TAP	49	48	5
STR	49	96	6
SI_	49	96	6	96	48	3
TAP	49	144	6
STR	49	192	7
SI_	49	192	7	96	48	2
TAP	49	240	7
TAP	49	288	4
TAP	49	336	4
TAP	50	0	0
TAP	50	0	5
TAP	50	48	7
TAP	50	96	6
TAP	50	144	0
TAP	50	144	5
TAP	50	192	1
TAP	50	192	4
TAP	50	240	2
TAP	50	240	3
BRK	50	288	0
BRK	50	288	5
TAP	51	0	2
TAP	51	0	7
TAP	51	48	0
STR	51	96	1
SI_	51	96	1	96	48	4
TAP	51	144	1
STR	51	192	0
SI_	51	192	0	96	48	5
TAP	51	240	0
TAP	51	288	3
TAP	51	336	3
TAP	52	0	2
TAP	52	0	7
TAP	52	48	0
TAP	52	96	1
TAP	52	144	2
TAP	52	144	7
TAP	52	192	0
TAP	52	192	1
TAP	52	240	2
TAP	52	288	6
TAP	52	288	7
TAP	52	336	5
TAP	53	0	0
TAP	53	0	4
TAP	53	48	7
STR	53	96	6
SI_	53	96	6	96	48	3
TAP	53	144	6
STR	53	192	7
SI_	53	192	7	96	48	2
TAP	53	240	7
TAP	53	288	4
TAP	53	336	4
TAP	54	0	0
TAP	54	0	5
TAP	54	48	7
TAP	54	96	6
TAP	54	144	0
TAP	54	144	5
TAP	54	192	1
TAP	54	192	4
TAP	54	240	2
TAP	54	240	3
BRK	54	288	0
BRK	54	288	5
BST	55	0	4
SCL	55	0	4	96	48	1
BRK	55	0	6
TAP	55	48	7
TAP	55	96	5
TAP	55	144	5
BST	55	192	3
SCL	55	192	3	96	48	0
TAP	55	240	6
TAP	55	288	4
TAP	55	336	4
BST	56	0	2
SCL	56	0	2	96	48	0
TAP	56	48	5
TAP	56	96	3
TAP	56	144	3
BST	56	192	1
SCL	56	192	1	96	48	7
TAP	56	240	4
TAP	56	288	3
TAP	56	336	3
TAP	57	0	1
TAP	57	0	3
TAP	57	48	0
STR	57	96	7
SCL	57	96	7	96	64	4
TAP	57	144	0
STR	57	192	7
SCR	57	192	7	96	64	2
STR	57	288	7
SXR	57	288	7	96	192	2
SXR	57	288	7	96	192	3
TAP	58	0	7
TAP	58	240	1
TAP	58	288	0
TAP	58	336	7
TAP	59	0	0
STR	59	48	1
SI_	59	48	1	96	72	4
STR	59	48	7
SLR	59	48	7	96	72	5
TAP	59	144	1
TAP	59	144	7
TAP	59	288	7
TAP	59	336	0
TAP	60	0	1
TAP	60	0	3
TAP	60	48	7
TAP	60	96	4
TAP	60	96	6
TAP	60	144	0
TAP	60	192	1
STR	60	192	3
SI_	60	192	3	96	48	7
BRK	60	288	0
TAP	61	0	1
TAP	61	0	6
TAP	61	48	7
STR	61	96	0
SCR	61	96	0	96	64	3
TAP	61	144	7
STR	61	192	0
SCL	61	192	0	96	64	5
STR	61	288	0
SCR	61	288	0	96	72	4
SUR	61	288	0	96	72	5
TAP	62	0	0
TAP	62	144	6
TAP	62	192	7
TAP	62	240	5
TAP	62	288	4
TAP	62	336	7
STR	63	0	3
SI_	63	0	3	96	48	7
STR	63	0	6
SI_	63	0	6	96	48	3
TAP	63	96	3
TAP	63	96	6
TAP	63	192	0
TAP	63	240	1
TAP	63	288	2
TAP	63	288	6
TAP	63	336	5
TAP	64	0	0
TAP	64	0	4
STR	64	96	2
SUL	64	96	2	96	48	6
STR	64	96	6
SUL	64	96	6	96	48	2
TAP	64	192	2
TAP	64	192	6
BRK	64	288	0
BRK	64	288	4
TAP	65	0	4
TAP	65	0	6
TAP	65	48	7
STR	65	96	0
SCR	65	96	0	96	64	3
TAP	65	144	7
STR	65	192	0
SCL	65	192	0	96	64	5
STR	65	288	0
SXL	65	288	0	96	192	4
SXL	65	288	0	96	192	5
TAP	66	0	0
TAP	66	240	6
TAP	66	288	7
TAP	66	336	0
TAP	66	336	5
TAP	67	0	7
STR	67	48	0
SLL	67	48	0	96	72	2
STR	67	48	6
SI_	67	48	6	96	72	3
TAP	67	144	0
TAP	67	144	6
TAP	67	288	0
TAP	67	336	7
TAP	68	0	4
TAP	68	0	6
TAP	68	48	0
TAP	68	96	1
TAP	68	96	3
TAP	68	144	7
STR	68	192	4
SI_	68	192	4	96	48	0
TAP	68	192	6
BRK	68	288	7
TAP	69	0	1
TAP	69	0	6
TAP	69	48	0
STR	69	96	7
SCL	69	96	7	96	64	4
TAP	69	144	0
STR	69	192	7
SCR	69	192	7	96	64	2
STR	69	288	7
SCL	69	288	7	96	72	3
SUL	69	288	7	96	72	2
TAP	70	0	7
TAP	70	144	1
TAP	70	192	0
TAP	70	240	2
TAP	70	288	3
TAP	70	336	0
STR	71	0	4
SI_	71	0	4	96	48	0
STR	71	0	5
SI_	71	0	5	96	48	1
TAP	71	96	4
TAP	71	96	5
STR	71	192	2
SI_	71	192	2	96	48	6
STR	71	192	3
SI_	71	192	3	96	48	7
STR	71	288	2
SXR	71	288	2	96	192	7
STR	71	288	3
SXL	71	288	3	96	192	6
TAP	72	288	0
TAP	72	288	5
TAP	73	0	1
TAP	73	0	4
TAP	73	48	2
TAP	73	72	3
TAP	73	96	2
TAP	73	144	7
TAP	73	192	0
HLD	73	192	6	96
TAP	73	288	0
TAP	73	336	1
TAP	74	0	2
TAP	74	0	7
TAP	74	48	6
TAP	74	96	0
TAP	74	96	5
TAP	74	144	1
TAP	74	192	2
TAP	74	192	7
TAP	74	288	4
TAP	74	288	5
TAP	75	0	3
TAP	75	0	6
TAP	75	48	5
TAP	75	72	4
TAP	75	96	5
TAP	75	144	0
HLD	75	192	1	96
TAP	75	192	7
TAP	75	288	4
TAP	75	336	5
STR	76	0	6
SI_	76	0	6	96	48	4
STR	76	48	7
SI_	76	48	7	96	48	3
STR	76	96	6
SI_	76	96	6	96	48	2
TAP	76	144	7
TAP	76	192	6
BRK	76	288	0
TAP	77	0	1
TAP	77	0	4
TAP	77	48	2
TAP	77	72	3
TAP	77	96	2
TAP	77	144	7
TAP	77	192	0
HLD	77	192	6	96
TAP	77	288	0
TAP	77	336	1
TAP	78	0	2
TAP	78	0	7
TAP	78	48	6
TAP	78	96	0
TAP	78	96	5
TAP	78	144	1
TAP	78	192	2
TAP	78	192	7
TAP	78	288	4
TAP	78	288	5
HLD	79	0	2	96
TAP	79	0	6
TAP	79	96	3
TAP	79	144	4
TAP	79	192	5
TAP	79	240	4
TAP	79	240	6
TAP	79	288	2
TAP	79	336	1
TAP	79	336	3
STR	80	0	0
SI_	80	0	0	96	48	3
STR	80	48	0
SI_	80	48	0	96	48	5
STR	80	96	0
SI_	80	96	0	96	48	4
BRK	80	288	2
BRK	80	288	7
TAP	81	0	3
TAP	81	0	7
TAP	81	48	6
TAP	81	72	4
TAP	81	96	6
TAP	81	144	2
HLD	81	192	1	96
TAP	81	192	7
TAP	81	288	0
TAP	81	336	7
TAP	82	0	1
TAP	82	0	6
TAP	82	48	2
TAP	82	96	3
TAP	82	96	7
TAP	82	144	6
TAP	82	192	1
TAP	82	192	5
TAP	82	288	2
TAP	82	288	3
TAP	83	0	0
TAP	83	0	5
TAP	83	48	1
TAP	83	72	3
TAP	83	96	1
TAP	83	144	5
TAP	83	192	0
HLD	83	192	6	96
TAP	83	288	3
TAP	83	336	2
STR	84	0	1
SI_	84	0	1	96	48	3
STR	84	48	0
SI_	84	48	0	96	48	4
STR	84	96	1
SI_	84	96	1	96	48	5
TAP	84	144	0
TAP	84	192	1
BRK	84	288	7
TAP	85	0	3
TAP	85	0	7
TAP	85	48	6
TAP	85	72	4
TAP	85	96	6
TAP	85	144	0
HLD	85	192	1	96
TAP	85	192	7
TAP	85	288	0
TAP	85	336	7
TAP	86	0	1
TAP	86	0	6
TAP	86	48	2
TAP	86	96	3
TAP	86	96	7
TAP	86	144	6
TAP	86	192	0
TAP	86	192	5
TAP	86	288	2
TAP	86	288	3
TAP	87	0	3
TAP	87	0	6
TAP	87	96	1
TAP	87	96	4
TAP	87	168	0
TAP	87	192	7
TAP	87	240	7
TAP	87	288	1
TAP	87	336	5
TAP	88	0	2
TAP	88	0	6
TAP	88	48	2
TAP	88	48	6
TAP	88	96	3
TAP	88	96	7
TAP	88	144	3
TAP	88	144	7
TAP	88	192	0
TAP	88	192	4
BRK	88	288	1
BRK	88	288	5
STR	89	0	1
SI_	89	0	1	96	48	4
TAP	89	0	5
STR	89	96	7
SI_	89	96	7	96	48	3
STR	89	192	2
SI_	89	192	2	96	48	7
STR	89	288	6
SI_	89	288	6	96	48	3
TAP	90	0	0
STR	90	96	1
SI_	90	96	1	96	48	4
STR	90	96	5
SI_	90	96	5	96	48	0
TAP	90	192	1
TAP	90	192	5
BRK	90	288	2
BRK	90	288	6
STR	91	0	1
SI_	91	0	1	96	48	4
STR	91	96	6
SI_	91	96	6	96	48	2
STR	91	192	0
SI_	91	192	0	96	48	4
STR	91	288	7
SI_	91	288	7	96	48	3
STR	92	0	2
SI_	92	0	2	96	48	7
STR	92	96	4
SI_	92	96	4	96	48	0
TAP	92	192	0
TAP	92	288	2
TAP	92	288	6
STR	93	0	1
SI_	93	0	1	96	48	4
TAP	93	0	5
STR	93	96	7
SI_	93	96	7	96	48	3
STR	93	192	2
SI_	93	192	2	96	48	7
STR	93	288	6
SI_	93	288	6	96	48	3
TAP	94	0	0
STR	94	96	1
SI_	94	96	1	96	48	4
STR	94	96	5
SI_	94	96	5	96	48	0
TAP	94	192	1
TAP	94	192	5
BRK	94	288	3
BRK	94	288	7
STR	95	0	6
SI_	95	0	6	96	48	3
STR	95	96	1
SI_	95	96	1	96	48	5
STR	95	192	7
SI_	95	192	7	96	48	3
STR	95	288	1
SI_	95	288	1	96	48	5
STR	96	0	4
SI_	96	0	4	96	48	7
TAP	96	96	3
TAP	96	192	1
TAP	96	192	5
TAP	96	216	2
TAP	96	240	3
TAP	96	264	4
TAP	96	288	5
TAP	96	312	6
TAP	96	336	7
TAP	96	360	0
TAP	97	0	1
TAP	97	0	4
TAP	97	48	2
TAP	97	72	3
STR	97	96	2
SI_	97	96	2	96	48	7
TAP	97	144	2
STR	97	192	3
SI_	97	192	3	96	48	6
TAP	97	240	3
TAP	97	288	0
TAP	97	336	0
TAP	98	0	2
TAP	98	0	5
TAP	98	48	4
TAP	98	72	3
TAP	98	96	4
TAP	98	144	2
TAP	98	144	5
STR	98	192	0
SI_	98	192	0	96	48	4
STR	98	192	1
SI_	98	192	1	96	48	5
BRK	98	288	0
BRK	98	288	1
TAP	99	0	3
TAP	99	0	6
TAP	99	48	5
TAP	99	72	4
STR	99	96	5
SI_	99	96	5	96	48	0
TAP	99	144	5
STR	99	192	4
SI_	99	192	4	96	48	1
TAP	99	240	4
TAP	99	288	7
TAP	99	336	7
TAP	100	0	2
TAP	100	0	5
TAP	100	48	3
TAP	100	72	4
TAP	100	96	3
TAP	100	144	2
TAP	100	144	5
TAP	100	192	0
TAP	100	192	1
TAP	100	240	2
TAP	100	288	6
TAP	100	288	7
TAP	100	336	5
TAP	101	0	3
TAP	101	0	6
TAP	101	48	5
TAP	101	72	4
STR	101	96	5
SI_	101	96	5	96	48	0
TAP	101	144	5
STR	101	192	4
SI_	101	192	4	96	48	1
TAP	101	240	4
TAP	101	288	7
TAP	101	336	7
TAP	102	0	2
TAP	102	0	5
TAP	102	48	4
TAP	102	72	3
TAP	102	96	4
TAP	102	144	2
TAP	102	144	5
STR	102	192	6
SI_	102	192	6	96	48	2
STR	102	192	7
SI_	102	192	7	96	48	3
BRK	102	288	6
BRK	102	288	7
TAP	103	0	1
TAP	103	0	4
TAP	103	48	2
TAP	103	72	3
STR	103	96	2
SI_	103	96	2	96	48	7
TAP	103	144	2
STR	103	192	3
SI_	103	192	3	96	48	6
TAP	103	240	3
TAP	103	288	0
TAP	103	336	0
TAP	104	0	2
TAP	104	0	5
TAP	104	48	4
TAP	104	72	3
TAP	104	96	4
TAP	104	144	2
TAP	104	144	5
TAP	104	240	1
TAP	104	240	5
TAP	104	288	2
TAP	104	288	6
TAP	104	336	3
TAP	104	336	7
BST	105	0	0
SXR	105	0	0	96	384	5
BST	105	0	4
SXR	105	0	4	96	384	1

T_REC_TAP	633
T_REC_BRK	39
T_REC_XTP	0
T_REC_HLD	19
T_REC_XHO	0
T_REC_STR	134
T_REC_BST	6
T_REC_XST	0
T_REC_TTP	0
T_REC_THO	0
T_REC_SLD	146
T_REC_ALL	977
T_NUM_TAP	767
T_NUM_BRK	45
T_NUM_HLD	19
T_NUM_SLD	146
T_NUM_ALL	977
T_JUDGE_TAP	812
T_JUDGE_HLD	39
T_JUDGE_SLD	146
T_JUDGE_ALL	997
TTM_EACHPAIRS	204
TTM_SCR_TAP	383500
TTM_SCR_BRK	117000
TTM_SCR_HLD	19000
TTM_SCR_SLD	219000
TTM_SCR_ALL	738500
TTM_SCR_S	712000
TTM_SCR_SS	734000
TTM_RAT_ACV	10061

