VERSION	0.00.00	1.03.00
FES_MODE	0
BPM_DEF	200.000	200.000	200.000	200.000
MET_DEF	4	4
RESOLUTION	384
CLK_DEF	384
COMPATIBLE_CODE	MA2

BPM	0	0	200.000

STR	1	0	3
SCL	1	0	3	96	192	0
TAP	1	0	7
TAP	1	192	5
TAP	1	288	5
TAP	2	0	0
STR	2	0	4
SCR	2	0	4	96	192	7
TAP	2	192	2
TAP	2	288	2
STR	3	0	3
SCL	3	0	3	96	192	0
TAP	3	0	7
TAP	3	192	5
TAP	3	288	5
TAP	4	0	0
STR	4	0	4
SCR	4	0	4	96	192	7
TAP	4	192	2
TAP	4	288	2
TAP	5	0	3
TAP	5	0	7
TAP	5	96	2
TAP	5	96	7
TAP	5	192	1
TAP	5	192	5
TAP	5	288	0
TAP	5	288	5
TAP	6	0	0
TAP	6	0	4
TAP	6	96	0
TAP	6	96	5
TAP	6	192	2
TAP	6	192	6
TAP	6	288	2
TAP	6	288	7
TAP	7	0	3
TAP	7	0	7
TAP	7	96	2
TAP	7	96	7
TAP	7	192	1
TAP	7	192	5
TAP	7	288	0
TAP	7	288	5
TAP	8	0	0
TAP	8	0	7
TAP	8	48	0
TAP	8	48	7
TAP	8	96	0
TAP	8	96	7
TAP	8	192	3
TAP	8	192	4
BRK	8	288	1
BRK	8	288	6
HLD	9	0	6	96
TAP	9	0	7
TAP	9	48	7
STR	9	96	0
SI_	9	96	0	96	48	3
STR	9	192	7
SI_	9	192	7	96	48	4
TAP	9	288	0
HLD	10	0	3	96
TAP	10	0	4
TAP	10	48	4
STR	10	96	4
SI_	10	96	4	96	48	7
TAP	10	192	0
TAP	10	288	2
TAP	10	288	5
TAP	11	0	0
HLD	11	0	1	96
TAP	11	48	0
STR	11	96	7
SI_	11	96	7	96	48	4
STR	11	192	0
SI_	11	192	0	96	48	3
TAP	11	288	7
TAP	12	0	3
HLD	12	0	4	96
TAP	12	48	3
STR	12	96	3
SI_	12	96	3	96	48	0
TAP	12	192	7
TAP	12	288	2
TAP	12	288	5
HLD	13	0	6	96
TAP	13	0	7
TAP	13	48	7
STR	13	96	0
SI_	13	96	0	96	48	4
STR	13	192	7
SI_	13	192	7	96	48	3
TAP	13	288	0
HLD	14	0	3	96
TAP	14	0	4
TAP	14	48	4
STR	14	96	4
SI_	14	96	4	96	48	7
TAP	14	192	0
TAP	14	288	2
TAP	14	288	5
TAP	15	0	0
HLD	15	0	1	96
TAP	15	48	0
STR	15	96	7
SI_	15	96	7	96	48	3
STR	15	192	0
SI_	15	192	0	96	48	4
TAP	15	288	7
TAP	16	0	3
HLD	16	0	4	96
TAP	16	48	3
STR	16	96	3
SI_	16	96	3	96	48	0
TAP	16	192	7
TAP	16	288	2
TAP	16	288	5
TAP	17	0	6
TAP	17	48	6
STR	17	96	0
SI_	17	96	0	96	48	4
STR	17	192	7
SI_	17	192	7	96	48	3
STR	17	288	0
SCR	17	288	0	96	192	7
TAP	18	0	7
TAP	18	288	3
TAP	18	288	4
TAP	19	0	4
TAP	19	0	6
TAP	19	96	3
TAP	19	96	4
TAP	19	192	1
TAP	19	192	3
TAP	19	288	3
TAP	19	288	4
TAP	20	0	0
HLD	20	48	0	48
TAP	20	96	6
HLD	20	144	6	48
TAP	20	192	4
BRK	20	288	2
BRK	20	288	5
TAP	21	0	1
TAP	21	48	1
STR	21	96	7
SI_	21	96	7	96	48	3
STR	21	192	0
SI_	21	192	0	96	48	4
STR	21	288	7
SCL	21	288	7	96	96	4
HLD	22	0	0	96
TAP	22	144	1
TAP	22	144	6
TAP	22	288	3
TAP	22	336	4
TAP	23	0	1
TAP	23	96	3
TAP	23	96	4
TAP	23	192	7
TAP	23	240	7
STR	23	288	3
SCL	23	288	3	96	192	4
TAP	24	0	4
TAP	24	288	2
TAP	24	288	5
TAP	25	0	3
TAP	25	48	3
STR	25	96	7
SI_	25	96	7	96	48	3
STR	25	192	0
SI_	25	192	0	96	48	4
STR	25	288	7
SCL	25	288	7	96	192	0
TAP	26	0	0
TAP	26	288	3
TAP	26	288	4
TAP	27	0	1
TAP	27	0	3
TAP	27	48	1
TAP	27	48	3
HLD	27	144	4	96
HLD	27	144	6	96
TAP	27	288	3
TAP	27	288	4
TAP	28	0	7
HLD	28	48	7	48
TAP	28	96	1
HLD	28	144	1	48
TAP	28	192	3
BRK	28	288	2
BRK	28	288	6
TAP	29	0	4
TAP	29	48	4
STR	29	96	0
SI_	29	96	0	96	48	4
STR	29	192	7
SI_	29	192	7	96	48	3
STR	29	288	0
SCR	29	288	0	96	144	7
TAP	30	0	7
TAP	30	240	3
TAP	30	240	4
TAP	30	288	3
TAP	30	288	4
TAP	31	0	4
TAP	31	0	6
TAP	31	96	3
TAP	31	96	4
TAP	31	192	0
TAP	31	240	0
STR	31	288	4
SCR	31	288	4	96	192	3
TAP	32	0	3
TAP	32	288	1
TAP	32	288	6
STR	33	0	3
SCL	33	0	3	96	960	4
TAP	33	0	4
TAP	33	96	4
TAP	33	192	4
TAP	33	288	4
TAP	34	0	3
TAP	34	96	3
TAP	34	192	3
TAP	34	288	3
TAP	35	0	2
TAP	35	96	2
TAP	35	192	2
TAP	35	288	2
TAP	36	0	1
TAP	36	96	2
TAP	36	192	4
TAP	36	240	3
TAP	36	288	2
TAP	36	288	5
TAP	37	0	3
STR	37	0	4
SCR	37	0	4	96	960	3
TAP	37	96	3
TAP	37	192	3
TAP	37	288	3
TAP	38	0	4
TAP	38	96	4
TAP	38	192	4
TAP	38	288	4
TAP	39	0	5
TAP	39	96	5
TAP	39	192	5
TAP	39	288	5
TAP	40	0	4
TAP	40	0	6
TAP	40	96	1
TAP	40	96	3
TAP	40	192	3
TAP	40	192	4
TAP	40	240	2
TAP	40	240	5
TAP	40	288	1
TAP	40	288	6
TAP	41	0	3
TAP	41	0	4
TAP	41	96	4
TAP	41	96	5
TAP	41	192	5
TAP	41	192	6
TAP	41	288	6
TAP	41	288	7
TAP	42	0	0
TAP	42	0	7
TAP	42	96	0
TAP	42	96	1
TAP	42	192	1
TAP	42	192	2
TAP	42	240	3
TAP	42	288	2
TAP	42	288	3
TAP	43	0	2
TAP	43	0	4
TAP	43	96	1
TAP	43	96	3
TAP	43	192	0
TAP	43	192	2
TAP	43	288	1
TAP	43	288	7
TAP	44	0	0
TAP	44	0	6
TAP	44	96	5
TAP	44	96	7
TAP	44	192	4
TAP	44	192	6
TAP	44	240	3
TAP	44	288	3
TAP	44	288	5
TAP	45	0	2
TAP	45	0	5
TAP	45	96	3
TAP	45	96	6
TAP	45	192	4
TAP	45	192	7
TAP	45	288	0
TAP	45	288	5
TAP	46	0	1
TAP	46	0	6
TAP	46	96	2
TAP	46	96	7
TAP	46	192	0
TAP	46	192	3
TAP	46	240	4
TAP	46	288	1
TAP	46	288	4
TAP	47	0	2
TAP	47	0	6
TAP	47	96	1
TAP	47	96	5
TAP	47	192	0
TAP	47	192	4
TAP	47	288	3
TAP	47	288	7
TAP	48	0	2
TAP	48	0	6
TAP	48	96	1
STR	48	96	5
SCR	48	96	5	96	96	2
TAP	48	192	3
TAP	49	0	1
TAP	49	48	1
STR	49	96	5
SI_	49	96	5	96	48	1
STR	49	192	0
SI_	49	192	0	96	48	4
TAP	49	288	7
TAP	50	0	6
TAP	50	48	6
STR	50	96	2
SI_	50	96	2	96	48	6
STR	50	192	7
SI_	50	192	7	96	48	3
TAP	50	288	0
TAP	51	0	1
TAP	51	48	1
STR	51	96	5
SI_	51	96	5	96	48	1
STR	51	192	0
SI_	51	192	0	96	48	4
TAP	51	288	7
TAP	52	0	6
TAP	52	48	6
STR	52	96	1
SLR	52	96	1	96	96	5
TAP	52	192	7
TAP	52	288	7
TAP	53	0	6
TAP	53	48	6
STR	53	96	2
SI_	53	96	2	96	48	6
STR	53	192	7
SI_	53	192	7	96	48	3
TAP	53	288	0
TAP	54	0	1
TAP	54	48	1
STR	54	96	5
SI_	54	96	5	96	48	1
STR	54	192	0
SI_	54	192	0	96	48	4
TAP	54	288	7
TAP	55	0	6
TAP	55	48	6
STR	55	96	2
SI_	55	96	2	96	48	5
STR	55	192	6
SI_	55	192	6	96	48	1
STR	55	288	2
SI_	55	288	2	96	48	5
STR	56	0	6
SI_	56	0	6	96	48	1
STR	56	96	2
SCL	56	96	2	96	96	5
BRK	56	192	4
TAP	57	0	3
TAP	57	0	6
TAP	57	48	5
TAP	57	72	4
STR	57	96	5
SI_	57	96	5	96	48	2
STR	57	192	3
SI_	57	192	3	96	48	0
STR	57	288	4
SCR	57	288	4	96	192	3
TAP	58	0	3
TAP	58	240	0
STR	58	288	0
SI_	58	288	0	96	48	4
TAP	59	0	7
STR	59	48	7
SI_	59	48	7	96	48	3
HLD	59	144	0	96
TAP	59	240	1
TAP	59	288	1
TAP	60	0	1
TAP	60	0	3
TAP	60	96	4
TAP	60	96	6
TAP	60	192	0
TAP	60	192	7
BRK	60	288	1
BRK	60	288	6
TAP	61	0	1
TAP	61	0	4
TAP	61	48	2
TAP	61	72	3
STR	61	96	2
SI_	61	96	2	96	48	5
STR	61	192	4
SI_	61	192	4	96	48	7
STR	61	288	3
SCL	61	288	3	96	96	0
TAP	62	0	4
TAP	62	96	7
TAP	62	144	7
TAP	62	240	1
STR	62	288	1
SI_	62	288	1	96	48	5
STR	63	0	6
SI_	63	0	6	96	48	2
STR	63	96	0
SI_	63	96	0	96	48	4
STR	63	192	7
SI_	63	192	7	96	48	3
STR	63	288	2
SCL	63	288	2	96	144	5
TAP	64	0	5
TAP	64	192	3
TAP	64	192	4
TAP	64	288	1
TAP	64	288	6
TAP	65	0	1
TAP	65	0	4
TAP	65	48	2
TAP	65	72	3
STR	65	96	2
SI_	65	96	2	96	48	5
STR	65	192	4
SI_	65	192	4	96	48	7
STR	65	288	3
SCL	65	288	3	96	192	4
TAP	66	0	4
TAP	66	240	7
STR	66	288	7
SI_	66	288	7	96	48	3
TAP	67	0	0
STR	67	48	0
SI_	67	48	0	96	48	4
HLD	67	144	7	96
TAP	67	240	6
TAP	67	288	6
TAP	68	0	4
TAP	68	0	6
TAP	68	96	1
TAP	68	96	3
TAP	68	192	0
TAP	68	192	7
BRK	68	288	1
BRK	68	288	6
TAP	69	0	3
TAP	69	0	6
TAP	69	48	5
TAP	69	72	4
STR	69	96	5
SI_	69	96	5	96	48	2
STR	69	192	3
SI_	69	192	3	96	48	0
STR	69	288	4
SCR	69	288	4	96	96	7
TAP	70	0	3
TAP	70	96	0
TAP	70	144	0
TAP	70	240	6
STR	70	288	6
SI_	70	288	6	96	48	2
STR	71	0	1
SI_	71	0	1	96	48	5
STR	71	96	7
SI_	71	96	7	96	48	3
STR	71	192	0
SI_	71	192	0	96	48	4
STR	71	288	5
SCR	71	288	5	96	144	2
TAP	72	0	2
TAP	72	288	1
TAP	72	288	6
TAP	73	0	0
TAP	73	0	5
TAP	73	48	6
TAP	73	72	7
STR	73	96	6
SI_	73	96	6	96	48	4
STR	73	192	0
SI_	73	192	0	96	48	2
STR	73	288	7
SI_	73	288	7	96	48	3
TAP	74	0	0
TAP	74	48	0
STR	74	96	0
SI_	74	96	0	96	48	4
STR	74	192	7
SI_	74	192	7	96	48	5
TAP	74	288	0
TAP	75	0	2
TAP	75	0	7
TAP	75	48	1
TAP	75	72	0
STR	75	96	1
SI_	75	96	1	96	48	3
STR	75	192	7
SI_	75	192	7	96	48	5
TAP	75	288	0
TAP	75	336	0
STR	76	0	0
SI_	76	0	0	96	48	3
STR	76	0	7
SI_	76	0	7	96	48	4
TAP	76	192	1
TAP	76	192	6
BRK	76	288	0
TAP	77	0	2
TAP	77	0	7
TAP	77	48	1
TAP	77	72	0
STR	77	96	1
SI_	77	96	1	96	48	3
STR	77	192	7
SI_	77	192	7	96	48	5
STR	77	288	0
SI_	77	288	0	96	48	4
TAP	78	0	7
TAP	78	48	7
STR	78	96	7
SI_	78	96	7	96	48	3
STR	78	192	0
SI_	78	192	0	96	48	2
TAP	78	288	7
STR	79	0	6
SI_	79	0	6	96	48	1
STR	79	96	2
SI_	79	96	2	96	48	5
STR	79	192	7
SI_	79	192	7	96	48	4
STR	79	288	2
SCL	79	288	2	96	96	5
TAP	80	0	5
TAP	80	192	1
TAP	80	192	6
BRK	80	288	0
TAP	81	0	2
TAP	81	0	7
TAP	81	48	1
TAP	81	72	0
STR	81	96	1
SI_	81	96	1	96	48	4
STR	81	192	7
SI_	81	192	7	96	48	3
STR	81	288	0
SI_	81	288	0	96	48	4
TAP	82	0	7
TAP	82	48	7
STR	82	96	7
SCL	82	96	7	96	48	4
STR	82	192	0
SCR	82	192	0	96	48	3
TAP	82	288	7
TAP	83	0	0
TAP	83	0	5
TAP	83	48	6
TAP	83	72	7
STR	83	96	6
SI_	83	96	6	96	48	3
STR	83	192	0
SI_	83	192	0	96	48	4
TAP	83	288	7
TAP	83	336	7
STR	84	0	0
SI_	84	0	0	96	48	4
STR	84	0	7
SI_	84	0	7	96	48	3
TAP	84	192	1
TAP	84	192	6
BRK	84	288	7
TAP	85	0	0
TAP	85	0	5
TAP	85	48	6
TAP	85	72	7
STR	85	96	6
SI_	85	96	6	96	48	3
STR	85	192	0
SI_	85	192	0	96	48	4
STR	85	288	7
SI_	85	288	7	96	48	3
TAP	86	0	0
TAP	86	48	0
STR	86	96	0
SCR	86	96	0	96	48	3
STR	86	192	7
SCL	86	192	7	96	48	4
TAP	86	288	0
TAP	87	0	0
TAP	87	0	2
TAP	87	96	3
TAP	87	192	5
TAP	87	192	7
TAP	87	288	4
TAP	88	0	3
TAP	88	0	4
TAP	88	96	0
TAP	88	96	7
TAP	88	192	2
TAP	88	192	5
BRK	88	288	1
BRK	88	288	6
TAP	89	0	0
HLD	89	0	7	96
TAP	89	48	0
STR	89	96	1
SI_	89	96	1	96	48	5
STR	89	192	7
SI_	89	192	7	96	48	3
TAP	89	288	0
TAP	90	0	4
HLD	90	0	5	96
TAP	90	48	4
STR	90	96	4
SI_	90	96	4	96	48	0
TAP	90	192	7
TAP	90	240	7
TAP	90	288	1
TAP	90	288	6
HLD	91	0	0	96
TAP	91	0	7
TAP	91	48	7
STR	91	96	6
SI_	91	96	6	96	48	2
STR	91	192	0
SI_	91	192	0	96	48	4
TAP	91	288	7
HLD	92	0	2	96
TAP	92	0	3
TAP	92	48	3
STR	92	96	3
SI_	92	96	3	96	48	7
TAP	92	192	0
TAP	92	240	0
TAP	92	288	1
TAP	92	288	6
HLD	93	0	2	96
TAP	93	0	3
TAP	93	48	3
STR	93	96	4
SI_	93	96	4	96	48	7
STR	93	192	0
SI_	93	192	0	96	48	3
TAP	93	288	7
TAP	94	0	4
HLD	94	0	5	96
TAP	94	48	4
STR	94	96	4
SI_	94	96	4	96	48	0
TAP	94	192	7
TAP	94	240	7
TAP	94	288	1
TAP	94	288	6
TAP	95	0	4
HLD	95	0	5	96
TAP	95	48	4
STR	95	96	3
SI_	95	96	3	96	48	0
STR	95	192	7
SI_	95	192	7	96	48	4
TAP	95	288	0
HLD	96	0	2	96
TAP	96	0	3
TAP	96	48	3
STR	96	96	3
SI_	96	96	3	96	48	7
TAP	96	192	0
TAP	96	240	0
TAP	96	288	1
TAP	96	288	6
HLD	97	0	3	96
TAP	97	0	6
TAP	97	48	6
STR	97	96	6
SI_	97	96	6	96	48	2
STR	97	192	0
SCR	97	192	0	96	48	3
TAP	97	288	7
TAP	98	0	4
HLD	98	0	5	96
TAP	98	48	4
STR	98	96	4
SI_	98	96	4	96	48	1
TAP	98	192	7
TAP	98	240	7
TAP	98	288	0
TAP	98	288	6
TAP	99	0	1
HLD	99	0	4	96
TAP	99	48	1
STR	99	96	1
SI_	99	96	1	96	48	5
STR	99	192	7
SCL	99	192	7	96	48	4
TAP	99	288	0
HLD	100	0	2	96
TAP	100	0	3
TAP	100	48	3
STR	100	96	3
SI_	100	96	3	96	48	6
TAP	100	192	0
TAP	100	240	0
TAP	100	288	1
TAP	100	288	7
HLD	101	0	4	96
TAP	101	0	5
TAP	101	48	5
STR	101	96	5
SCR	101	96	5	96	48	0
STR	101	192	1
SCR	101	192	1	96	48	4
TAP	101	288	7
TAP	102	0	4
HLD	102	0	6	96
TAP	102	48	4
STR	102	96	4
SI_	102	96	4	96	48	0
TAP	102	192	7
TAP	102	240	7
TAP	102	288	1
TAP	102	288	6
TAP	103	0	2
HLD	103	0	3	96
TAP	103	48	2
STR	103	96	2
SCL	103	96	2	96	48	7
STR	103	192	6
SCL	103	192	6	96	48	3
TAP	103	288	0
TAP	104	0	4
TAP	104	0	6
TAP	104	48	4
TAP	104	96	3
TAP	104	144	3
TAP	104	144	4
TAP	104	240	0
TAP	104	240	7
TAP	104	288	0
TAP	104	288	7
TAP	104	336	1
TAP	104	336	6
BRK	105	0	2
BRK	105	0	5

T_REC_TAP	451
T_REC_BRK	18
T_REC_XTP	0
T_REC_HLD	32
T_REC_XHO	0
T_REC_STR	130
T_REC_BST	0
T_REC_XST	0
T_REC_TTP	0
T_REC_THO	0
T_REC_SLD	130
T_REC_ALL	761
T_NUM_TAP	581
T_NUM_BRK	18
T_NUM_HLD	32
T_NUM_SLD	130
T_NUM_ALL	761
T_JUDGE_TAP	599
T_JUDGE_HLD	60
T_JUDGE_SLD	130
T_JUDGE_ALL	789
TTM_EACHPAIRS	151
TTM_SCR_TAP	290500
TTM_SCR_BRK	46800
TTM_SCR_HLD	32000
TTM_SCR_SLD	195000
TTM_SCR_ALL	564300
TTM_SCR_S	545650
TTM_SCR_SS	562500
TTM_RAT_ACV	10032

