VERSION	0.00.00	1.03.00
FES_MODE	0
BPM_DEF	200.000	200.000	200.000	200.000
MET_DEF	4	4
RESOLUTION	384
CLK_DEF	384
COMPATIBLE_CODE	MA2

BPM	0	0	200.000

TAP	1	0	2
HLD	1	0	3	384
HLD	2	0	4	192
TAP	2	192	5
TAP	2	288	3
TAP	2	288	6
HLD	3	0	4	384
TAP	3	0	5
HLD	4	0	3	192
TAP	4	192	2
TAP	4	288	1
TAP	4	288	4
TAP	5	0	2
HLD	5	0	3	384
HLD	6	0	4	192
TAP	6	192	5
TAP	6	288	3
TAP	6	288	6
HLD	7	0	2	96
HLD	7	0	3	96
HLD	7	192	4	96
HLD	7	192	5	96
TAP	8	0	0
TAP	8	0	7
STR	8	96	1
SI_	8	96	1	96	48	4
STR	8	96	6
SI_	8	96	6	96	48	3
TAP	9	0	1
TAP	9	96	0
TAP	9	96	1
TAP	9	192	2
TAP	9	288	2
TAP	9	288	3
HLD	10	0	5	96
HLD	10	96	6	96
HLD	10	192	7	96
TAP	10	288	0
TAP	11	0	6
TAP	11	96	6
TAP	11	96	7
TAP	11	192	5
TAP	11	288	4
TAP	11	288	5
HLD	12	0	2	96
HLD	12	96	1	96
HLD	12	192	0	96
TAP	12	288	7
TAP	13	0	1
TAP	13	96	0
TAP	13	96	1
TAP	13	192	2
TAP	13	288	2
TAP	13	288	3
HLD	14	0	5	96
HLD	14	96	6	96
HLD	14	192	7	96
TAP	14	288	0
BRK	15	0	1
BRK	15	0	3
BRK	15	192	4
BRK	15	192	6
TAP	16	0	2
TAP	16	0	3
TAP	16	96	4
TAP	16	96	5
TAP	16	144	4
TAP	16	144	5
TAP	16	240	0
TAP	16	240	7
BRK	16	288	0
BRK	16	288	7
TAP	17	0	3
TAP	17	0	4
TAP	17	96	1
TAP	17	96	3
TAP	17	192	3
TAP	17	192	5
STR	17	288	2
SCL	17	288	2	96	144	5
TAP	17	288	3
TAP	18	288	3
TAP	18	288	4
TAP	19	0	5
TAP	19	48	5
TAP	19	144	4
HLD	19	144	6	144
TAP	19	288	7
TAP	20	0	1
TAP	20	48	1
TAP	20	96	7
TAP	20	144	7
STR	20	192	0
SI_	20	192	0	96	48	4
TAP	21	0	5
TAP	21	48	5
TAP	21	96	4
TAP	21	192	3
TAP	21	192	6
TAP	21	288	1
TAP	21	288	4
TAP	22	0	3
STR	22	0	6
SCR	22	0	6	96	192	3
TAP	23	0	4
TAP	23	0	5
TAP	23	96	2
TAP	23	96	3
TAP	23	192	6
TAP	23	240	6
STR	23	288	7
SXL	23	288	7	96	288	3
TAP	25	0	3
TAP	25	0	4
TAP	25	96	4
TAP	25	96	6
TAP	25	192	2
TAP	25	192	4
TAP	25	288	4
STR	25	288	5
SCR	25	288	5	96	144	2
TAP	26	288	3
TAP	26	288	4
TAP	27	0	2
TAP	27	48	2
HLD	27	144	1	144
TAP	27	144	3
TAP	27	288	0
TAP	28	0	6
TAP	28	48	6
TAP	28	96	0
TAP	28	144	0
STR	28	192	7
SI_	28	192	7	96	48	3
TAP	29	0	2
TAP	29	48	2
TAP	29	96	3
TAP	29	192	1
TAP	29	192	4
TAP	29	288	3
TAP	29	288	6
STR	30	0	1
SCL	30	0	1	96	192	4
TAP	30	0	4
TAP	31	0	1
TAP	31	0	3
TAP	31	96	4
TAP	31	96	6
TAP	31	192	3
TAP	31	240	3
STR	31	288	4
SXL	31	288	4	96	288	0
HLD	33	0	2	672
TAP	33	96	3
TAP	33	288	3
TAP	34	96	4
TAP	34	288	4
HLD	35	0	5	672
TAP	35	96	4
TAP	35	288	4
TAP	36	96	3
TAP	36	288	3
HLD	37	0	2	288
TAP	37	96	3
TAP	37	192	3
TAP	37	288	3
HLD	38	0	5	288
TAP	38	96	4
TAP	38	192	4
TAP	38	288	4
HLD	39	0	1	96
TAP	39	96	2
HLD	39	192	6	96
TAP	39	288	5
TAP	40	0	0
TAP	40	0	1
TAP	40	96	6
TAP	40	96	7
STR	40	192	0
SI_	40	192	0	96	48	3
STR	40	192	7
SI_	40	192	7	96	48	4
HLD	41	0	2	96
HLD	41	96	1	96
HLD	41	192	0	96
HLD	41	288	7	96
HLD	42	0	6	96
HLD	42	96	5	96
TAP	42	192	4
TAP	42	288	3
TAP	42	288	6
HLD	43	0	5	96
HLD	43	96	6	96
HLD	43	192	7	96
HLD	43	288	0	96
HLD	44	0	1	96
HLD	44	96	2	96
TAP	44	192	3
TAP	44	288	1
TAP	44	288	4
HLD	45	0	6	96
HLD	45	96	5	96
HLD	45	192	4	96
HLD	45	288	3	96
HLD	46	0	2	96
HLD	46	96	1	96
TAP	46	192	0
TAP	46	288	2
TAP	46	288	7
HLD	47	0	1	96
HLD	47	96	2	96
HLD	47	192	3	96
TAP	47	288	4
TAP	48	0	4
TAP	48	0	5
TAP	48	96	2
TAP	48	96	3
TAP	48	144	2
TAP	48	144	3
TAP	48	240	0
TAP	48	240	7
BRK	48	288	0
BRK	48	288	7
TAP	49	0	6
TAP	49	48	6
TAP	49	96	5
TAP	49	96	7
TAP	49	192	1
TAP	49	240	1
TAP	49	288	0
TAP	49	288	2
TAP	50	0	5
TAP	50	48	5
TAP	50	96	4
TAP	50	96	6
TAP	50	192	6
TAP	50	192	7
TAP	50	288	2
TAP	50	288	7
TAP	51	0	1
TAP	51	48	1
TAP	51	96	0
TAP	51	96	2
TAP	51	192	6
TAP	51	240	6
TAP	51	288	5
TAP	51	288	7
TAP	52	0	2
TAP	52	48	2
TAP	52	96	1
TAP	52	96	3
TAP	52	192	0
TAP	52	192	1
TAP	52	288	0
TAP	52	288	5
TAP	53	0	2
TAP	53	48	2
TAP	53	96	1
TAP	53	96	3
TAP	53	192	5
TAP	53	240	5
TAP	53	288	4
TAP	53	288	6
TAP	54	0	1
TAP	54	48	1
TAP	54	96	0
TAP	54	96	2
TAP	54	192	0
TAP	54	192	7
TAP	54	288	1
TAP	54	288	6
STR	55	0	2
SI_	55	0	2	96	48	7
TAP	55	0	3
TAP	55	192	4
STR	55	192	5
SI_	55	192	5	96	48	0
STR	56	0	3
SI_	56	0	3	96	48	0
STR	56	0	4
SI_	56	0	4	96	48	7
TAP	56	192	2
TAP	56	192	5
BRK	56	288	0
BRK	56	288	7
TAP	57	0	2
TAP	57	48	2
TAP	57	96	3
TAP	57	192	0
STR	57	192	1
SI_	57	192	1	96	48	4
STR	57	288	5
SCR	57	288	5	96	144	2
TAP	58	288	3
TAP	58	288	4
TAP	59	0	4
TAP	59	0	5
TAP	59	48	4
TAP	59	48	5
TAP	59	144	3
HLD	59	144	6	144
TAP	59	288	7
TAP	60	0	1
TAP	60	48	1
TAP	60	96	7
TAP	60	144	7
STR	60	192	0
SI_	60	192	0	96	48	4
BRK	60	288	7
TAP	61	0	5
TAP	61	48	5
TAP	61	96	4
TAP	61	192	3
TAP	61	192	6
TAP	61	288	0
TAP	61	288	3
TAP	62	0	3
STR	62	0	6
SCR	62	0	6	96	192	3
TAP	63	0	4
TAP	63	0	6
TAP	63	96	1
TAP	63	96	3
TAP	63	192	6
TAP	63	240	6
STR	63	288	7
SXL	63	288	7	96	288	3
SXR	63	288	7	96	288	3
TAP	65	0	5
TAP	65	48	5
TAP	65	96	4
STR	65	192	6
SI_	65	192	6	96	48	3
TAP	65	192	7
STR	65	288	2
SCL	65	288	2	96	144	5
TAP	66	288	3
TAP	66	288	4
TAP	67	0	2
TAP	67	0	3
TAP	67	48	2
TAP	67	48	3
HLD	67	144	1	144
TAP	67	144	4
TAP	67	288	0
TAP	68	0	6
TAP	68	48	6
TAP	68	96	0
TAP	68	144	0
STR	68	192	7
SI_	68	192	7	96	48	3
BRK	68	288	0
TAP	69	0	2
TAP	69	48	2
TAP	69	96	3
TAP	69	192	1
TAP	69	192	4
TAP	69	288	4
TAP	69	288	7
STR	70	0	1
SCL	70	0	1	96	192	4
TAP	70	0	4
TAP	71	0	1
TAP	71	0	3
TAP	71	96	4
TAP	71	96	6
TAP	71	192	3
TAP	71	240	3
STR	71	288	4
SXL	71	288	4	96	288	0
SXR	71	288	4	96	288	0
TAP	73	0	1
TAP	73	48	1
TAP	73	96	0
STR	73	192	1
SI_	73	192	1	96	48	4
TAP	73	288	7
TAP	74	0	6
TAP	74	48	6
TAP	74	96	6
TAP	74	192	4
TAP	74	192	5
TAP	74	288	6
TAP	74	288	7
TAP	75	0	6
TAP	75	48	6
TAP	75	96	7
STR	75	192	6
SI_	75	192	6	96	48	3
TAP	75	288	0
TAP	76	0	1
TAP	76	48	1
TAP	76	96	1
TAP	76	192	2
TAP	76	192	3
BRK	76	288	0
BRK	76	288	1
TAP	77	0	1
TAP	77	48	1
TAP	77	96	0
STR	77	192	1
SI_	77	192	1	96	48	4
TAP	77	288	7
TAP	78	0	6
TAP	78	48	6
TAP	78	96	6
TAP	78	192	4
TAP	78	192	5
TAP	78	288	6
TAP	78	288	7
HLD	79	0	0	96
HLD	79	0	5	96
HLD	79	192	2	96
HLD	79	192	7	96
TAP	80	0	1
TAP	80	0	6
TAP	80	96	3
TAP	80	96	4
BRK	80	192	0
BRK	80	192	7
STR	81	0	1
SI_	81	0	1	96	48	4
STR	81	96	0
SI_	81	96	0	96	48	5
TAP	81	192	3
TAP	81	240	3
TAP	81	288	3
TAP	82	0	2
TAP	82	48	2
TAP	82	96	3
STR	82	192	3
SI_	82	192	3	96	48	7
TAP	82	192	4
STR	83	0	6
SI_	83	0	6	96	48	3
STR	83	96	1
SI_	83	96	1	96	48	4
TAP	83	192	5
TAP	83	240	5
TAP	83	288	5
TAP	84	0	2
TAP	84	48	2
TAP	84	96	2
TAP	84	192	1
TAP	84	192	6
BRK	84	288	0
BRK	84	288	7
STR	85	0	6
SI_	85	0	6	96	48	3
STR	85	96	7
SI_	85	96	7	96	48	2
TAP	85	192	4
TAP	85	240	4
TAP	85	288	4
TAP	86	0	5
TAP	86	48	5
TAP	86	96	4
TAP	86	192	3
STR	86	192	4
SI_	86	192	4	96	48	0
STR	87	0	2
SI_	87	0	2	96	48	7
TAP	87	0	3
TAP	87	192	4
STR	87	192	5
SI_	87	192	5	96	48	0
TAP	88	0	1
TAP	88	0	3
TAP	88	96	4
TAP	88	96	6
TAP	88	192	0
TAP	88	192	7
BRK	88	288	1
BRK	88	288	6
HLD	89	0	2	96
HLD	89	96	3	96
HLD	89	192	4	96
HLD	89	288	5	96
HLD	90	0	6	96
HLD	90	96	7	96
TAP	90	192	1
TAP	90	240	1
TAP	90	288	0
TAP	90	288	2
HLD	91	0	5	96
HLD	91	96	4	96
HLD	91	192	3	96
HLD	91	288	2	96
HLD	92	0	1	96
HLD	92	96	0	96
TAP	92	192	6
TAP	92	240	6
TAP	92	288	5
TAP	92	288	7
HLD	93	0	1	96
HLD	93	96	0	96
HLD	93	192	7	96
HLD	93	288	6	96
HLD	94	0	5	96
HLD	94	96	4	96
TAP	94	192	2
TAP	94	240	2
TAP	94	288	1
TAP	94	288	3
HLD	95	0	6	96
HLD	95	96	7	96
HLD	95	192	0	96
TAP	95	288	1
HLD	96	0	1	96
HLD	96	0	3	96
HLD	96	144	4	96
HLD	96	144	6	96
BRK	96	288	0
BRK	96	288	7
TAP	97	0	2
TAP	97	48	2
TAP	97	96	3
TAP	97	144	3
STR	97	192	1
SI_	97	192	1	96	48	5
STR	97	288	7
SI_	97	288	7	96	48	3
TAP	98	0	0
TAP	98	48	0
TAP	98	96	0
TAP	98	192	2
TAP	98	192	3
TAP	98	288	0
TAP	98	288	7
TAP	99	0	5
TAP	99	48	5
TAP	99	96	4
TAP	99	144	4
STR	99	192	6
SI_	99	192	6	96	48	2
STR	99	288	0
SI_	99	288	0	96	48	4
TAP	100	0	7
TAP	100	48	7
TAP	100	96	7
TAP	100	192	4
TAP	100	192	5
TAP	100	288	0
TAP	100	288	7
TAP	101	0	2
TAP	101	48	2
TAP	101	96	3
TAP	101	144	3
STR	101	192	1
SI_	101	192	1	96	48	5
STR	101	288	7
SI_	101	288	7	96	48	3
TAP	102	0	0
TAP	102	48	0
TAP	102	96	0
TAP	102	192	2
TAP	102	192	3
TAP	102	288	0
TAP	102	288	7
TAP	103	0	5
TAP	103	48	5
TAP	103	96	4
TAP	103	144	4
TAP	103	192	3
TAP	103	192	6
TAP	103	288	1
TAP	103	288	4
TAP	104	0	0
TAP	104	0	7
TAP	104	96	4
TAP	104	96	5
TAP	104	144	4
TAP	104	144	5
TAP	104	240	2
TAP	104	240	3
TAP	104	288	2
TAP	104	288	3
BST	105	0	1
SCL	105	0	1	96	576	2
BRK	105	0	6

T_REC_TAP	384
T_REC_BRK	23
T_REC_XTP	0
T_REC_HLD	79
T_REC_XHO	0
T_REC_STR	45
T_REC_BST	1
T_REC_XST	0
T_REC_TTP	0
T_REC_THO	0
T_REC_SLD	48
T_REC_ALL	580
T_NUM_TAP	429
T_NUM_BRK	24
T_NUM_HLD	79
T_NUM_SLD	48
T_NUM_ALL	580
T_JUDGE_TAP	453
T_JUDGE_HLD	218
T_JUDGE_SLD	48
T_JUDGE_ALL	719
TTM_EACHPAIRS	137
TTM_SCR_TAP	214500
TTM_SCR_BRK	62400
TTM_SCR_HLD	79000
TTM_SCR_SLD	72000
TTM_SCR_ALL	427900
TTM_SCR_S	412750
TTM_SCR_SS	425500
TTM_RAT_ACV	10056

