VERSION	0.00.00	1.03.00
FES_MODE	0
BPM_DEF	200.000	200.000	200.000	200.000
MET_DEF	4	4
RESOLUTION	384
CLK_DEF	384
COMPATIBLE_CODE	MA2

BPM	0	0	200.000

TAP	1	0	2
TAP	1	96	2
TAP	1	192	3
TAP	2	0	5
TAP	2	96	5
TAP	2	192	4
TAP	3	0	2
TAP	3	96	2
TAP	3	192	3
TAP	3	288	3
HLD	4	0	5	192
TAP	4	192	4
TAP	5	0	6
TAP	5	96	6
TAP	5	192	7
TAP	6	0	1
TAP	6	96	1
TAP	6	192	0
TAP	7	0	7
TAP	7	96	7
TAP	7	192	0
TAP	7	288	0
HLD	8	0	0	96
HLD	8	0	7	96
BRK	8	192	1
BRK	8	192	6
TAP	9	0	5
TAP	9	96	5
TAP	9	192	4
TAP	9	192	5
TAP	10	0	2
TAP	10	96	2
TAP	10	192	2
TAP	10	192	3
TAP	11	0	5
TAP	11	96	5
TAP	11	192	4
TAP	11	288	4
TAP	12	0	3
TAP	12	96	3
BRK	12	192	2
TAP	13	0	1
TAP	13	96	1
TAP	13	192	0
TAP	13	192	1
TAP	14	0	6
TAP	14	96	6
TAP	14	192	6
TAP	14	192	7
TAP	15	0	0
TAP	15	96	0
TAP	15	192	7
TAP	15	288	7
HLD	16	0	0	96
HLD	16	0	7	96
BRK	16	192	1
BRK	16	192	6
TAP	17	0	2
TAP	17	96	1
TAP	17	192	0
TAP	17	288	7
HLD	18	0	6	192
TAP	18	192	7
STR	19	0	6
SI_	19	0	6	96	192	3
STR	19	0	7
SI_	19	0	7	96	192	2
TAP	20	0	4
TAP	20	96	4
BRK	20	192	5
TAP	21	0	6
TAP	21	96	5
TAP	21	192	4
TAP	21	288	3
HLD	22	0	2	192
TAP	22	192	3
STR	23	0	2
SI_	23	0	2	96	192	7
STR	23	0	3
SI_	23	0	3	96	192	6
TAP	24	0	0
TAP	24	96	0
BRK	24	192	0
BRK	24	192	7
TAP	25	0	5
TAP	25	96	6
TAP	25	192	7
TAP	25	288	0
HLD	26	0	1	192
TAP	26	192	0
STR	27	0	0
SI_	27	0	0	96	192	5
STR	27	0	1
SI_	27	0	1	96	192	4
TAP	28	0	3
TAP	28	96	3
BRK	28	192	2
TAP	29	0	1
TAP	29	96	2
TAP	29	192	3
TAP	29	288	4
HLD	30	0	5	192
TAP	30	192	4
STR	31	0	4
SI_	31	0	4	96	192	1
STR	31	0	5
SI_	31	0	5	96	192	0
TAP	32	0	7
TAP	32	96	7
BRK	32	192	0
BRK	32	192	7
HLD	33	0	2	384
HLD	34	0	3	384
HLD	35	0	4	384
HLD	36	0	5	192
TAP	36	192	4
HLD	37	0	6	384
HLD	38	0	7	384
HLD	39	0	0	384
HLD	40	0	1	192
TAP	40	192	0
TAP	41	0	2
TAP	41	96	2
TAP	41	192	3
TAP	41	288	3
TAP	42	0	4
TAP	42	96	4
TAP	42	192	4
TAP	42	192	5
TAP	43	0	5
TAP	43	96	5
TAP	43	192	4
TAP	43	288	4
TAP	44	0	3
TAP	44	96	3
BRK	44	192	2
TAP	45	0	1
TAP	45	96	1
TAP	45	192	0
TAP	45	288	0
TAP	46	0	7
TAP	46	96	7
TAP	46	192	6
TAP	46	192	7
TAP	47	0	6
TAP	47	96	6
TAP	47	192	7
TAP	47	288	7
TAP	48	0	0
TAP	48	96	0
BRK	48	192	1
TAP	49	0	7
TAP	49	96	7
TAP	49	192	6
TAP	49	288	6
TAP	50	0	5
TAP	50	96	5
TAP	50	192	3
TAP	50	192	4
TAP	50	288	3
TAP	50	288	4
TAP	51	0	3
TAP	51	96	3
TAP	51	192	2
TAP	51	288	2
TAP	52	0	1
TAP	52	96	1
BRK	52	192	0
TAP	53	0	0
TAP	53	96	0
TAP	53	192	1
TAP	53	288	1
TAP	54	0	2
TAP	54	96	2
TAP	54	192	3
TAP	54	192	4
TAP	54	288	3
TAP	54	288	4
HLD	55	0	4	96
HLD	55	0	5	96
HLD	55	192	2	96
HLD	55	192	3	96
TAP	56	0	3
TAP	56	0	4
TAP	56	96	2
TAP	56	96	5
HLD	56	192	1	96
HLD	56	192	6	96
TAP	57	0	0
TAP	57	0	7
TAP	57	96	0
TAP	57	96	7
TAP	57	192	1
TAP	57	192	6
TAP	57	288	1
TAP	57	288	6
HLD	58	0	0	192
TAP	58	192	7
STR	59	0	0
SI_	59	0	0	96	192	3
STR	59	0	7
SI_	59	0	7	96	192	4
TAP	60	0	3
TAP	60	0	4
TAP	60	96	3
TAP	60	96	4
BRK	60	192	2
BRK	60	192	5
TAP	61	0	3
TAP	61	0	4
TAP	61	96	3
TAP	61	96	4
TAP	61	192	2
TAP	61	192	5
TAP	61	288	2
TAP	61	288	5
HLD	62	0	3	192
TAP	62	192	4
STR	63	0	3
SI_	63	0	3	96	192	0
STR	63	0	4
SI_	63	0	4	96	192	7
TAP	64	0	0
TAP	64	0	7
TAP	64	96	0
TAP	64	96	7
BRK	64	192	1
BRK	64	192	6
TAP	65	0	0
TAP	65	0	1
TAP	65	96	0
TAP	65	96	1
TAP	65	192	6
TAP	65	192	7
TAP	65	288	6
TAP	65	288	7
HLD	66	0	1	192
TAP	66	192	0
STR	67	0	0
SI_	67	0	0	96	192	5
STR	67	0	1
SI_	67	0	1	96	192	4
TAP	68	0	2
TAP	68	0	3
TAP	68	96	2
TAP	68	96	3
BRK	68	192	1
BRK	68	192	4
TAP	69	0	4
TAP	69	0	5
TAP	69	96	4
TAP	69	96	5
TAP	69	192	2
TAP	69	192	3
TAP	69	288	2
TAP	69	288	3
TAP	70	0	0
TAP	70	0	1
TAP	70	96	0
TAP	70	96	1
BRK	70	192	6
BRK	70	192	7
HLD	71	0	1	96
HLD	71	0	7	96
HLD	71	192	0	96
HLD	71	192	6	96
TAP	72	0	0
TAP	72	0	7
TAP	72	96	0
TAP	72	96	7
BRK	72	192	1
BRK	72	192	6
TAP	73	0	1
TAP	73	96	0
TAP	73	192	1
TAP	73	288	0
TAP	74	0	7
TAP	74	96	6
TAP	74	192	7
TAP	74	288	0
TAP	75	0	7
TAP	75	96	6
TAP	75	192	7
TAP	75	288	6
TAP	76	0	7
TAP	76	96	0
TAP	76	192	1
TAP	76	192	6
TAP	77	0	0
TAP	77	96	1
TAP	77	192	2
TAP	77	288	3
TAP	78	0	4
TAP	78	96	5
TAP	78	192	6
BRK	78	288	7
HLD	79	0	0	96
HLD	79	0	1	96
HLD	79	192	6	96
HLD	79	192	7	96
TAP	80	0	0
TAP	80	0	7
TAP	80	96	0
TAP	80	96	7
BRK	80	192	1
BRK	80	192	6
TAP	81	0	0
TAP	81	0	1
TAP	81	96	0
TAP	81	96	1
TAP	81	192	0
TAP	81	192	7
TAP	81	288	0
TAP	81	288	7
TAP	82	0	6
TAP	82	0	7
TAP	82	96	6
TAP	82	96	7
TAP	82	192	0
TAP	82	192	7
TAP	83	0	6
TAP	83	0	7
TAP	83	96	6
TAP	83	96	7
TAP	83	192	0
TAP	83	192	7
TAP	83	288	0
TAP	83	288	7
TAP	84	0	0
TAP	84	0	1
TAP	84	96	0
TAP	84	96	1
BRK	84	192	0
BRK	84	192	7
TAP	85	0	7
TAP	85	96	6
TAP	85	192	5
TAP	85	288	4
TAP	86	0	3
TAP	86	96	2
TAP	86	192	1
TAP	86	288	0
HLD	87	0	0	96
HLD	87	0	1	96
HLD	87	192	6	96
HLD	87	192	7	96
TAP	88	0	0
TAP	88	0	7
TAP	88	96	1
TAP	88	96	6
BRK	88	192	2
BRK	88	192	5
TAP	89	0	2
TAP	89	96	2
TAP	89	192	3
TAP	89	288	3
TAP	90	0	5
TAP	90	96	5
TAP	90	192	4
TAP	90	288	4
TAP	91	0	2
TAP	91	96	2
TAP	91	192	3
TAP	91	288	3
TAP	92	0	4
TAP	92	96	4
TAP	92	192	4
TAP	92	192	5
TAP	92	288	4
TAP	92	288	5
TAP	93	0	6
TAP	93	96	6
TAP	93	192	7
TAP	93	288	7
TAP	94	0	1
TAP	94	96	1
TAP	94	192	0
TAP	94	288	0
TAP	95	0	6
TAP	95	0	7
TAP	95	96	6
TAP	95	96	7
TAP	95	192	0
TAP	95	192	1
TAP	95	288	0
TAP	95	288	1
HLD	96	0	0	96
HLD	96	0	7	96
BRK	96	192	1
BRK	96	192	6
TAP	97	0	6
TAP	97	96	6
TAP	97	192	6
TAP	97	192	7
TAP	97	288	6
TAP	97	288	7
TAP	98	0	1
TAP	98	96	1
TAP	98	192	0
TAP	98	192	1
TAP	98	288	0
TAP	98	288	1
TAP	99	0	6
TAP	99	96	6
TAP	99	192	7
TAP	99	288	7
TAP	100	0	0
TAP	100	96	0
BRK	100	192	1
TAP	101	0	1
TAP	101	96	1
TAP	101	192	0
TAP	101	192	1
TAP	101	288	0
TAP	101	288	1
TAP	102	0	6
TAP	102	96	6
TAP	102	192	6
TAP	102	192	7
TAP	102	288	6
TAP	102	288	7
TAP	103	0	5
TAP	103	96	5
TAP	103	192	4
TAP	103	288	4
TAP	104	0	2
TAP	104	0	3
TAP	104	192	4
TAP	104	192	5
STR	105	0	3
SXR	105	0	3	96	864	0
STR	105	0	4
SXL	105	0	4	96	864	7

T_REC_TAP	327
T_REC_BRK	34
T_REC_XTP	0
T_REC_HLD	40
T_REC_XHO	0
T_REC_STR	16
T_REC_BST	0
T_REC_XST	0
T_REC_TTP	0
T_REC_THO	0
T_REC_SLD	16
T_REC_ALL	433
T_NUM_TAP	343
T_NUM_BRK	34
T_NUM_HLD	40
T_NUM_SLD	16
T_NUM_ALL	433
T_JUDGE_TAP	377
T_JUDGE_HLD	136
T_JUDGE_SLD	16
T_JUDGE_ALL	529
TTM_EACHPAIRS	105
TTM_SCR_TAP	171500
TTM_SCR_BRK	88400
TTM_SCR_HLD	40000
TTM_SCR_SLD	24000
TTM_SCR_ALL	323900
TTM_SCR_S	310900
TTM_SCR_SS	320500
TTM_RAT_ACV	10106

