VERSION	0.00.00	1.03.00
FES_MODE	0
BPM_DEF	200.000	200.000	200.000	200.000
MET_DEF	4	4
RESOLUTION	384
CLK_DEF	384
COMPATIBLE_CODE	MA2

BPM	0	0	200.000

TAP	1	0	0
TAP	2	0	0
TAP	3	0	7
TAP	4	0	7
TAP	5	0	0
TAP	5	192	0
TAP	6	0	0
TAP	6	192	0
TAP	7	0	7
TAP	7	192	7
TAP	8	0	0
TAP	8	0	7
TAP	8	192	0
TAP	8	192	7
TAP	9	0	0
TAP	9	96	0
TAP	9	192	0
TAP	10	0	1
TAP	10	96	1
TAP	10	192	1
TAP	11	0	2
TAP	11	96	2
TAP	11	192	2
TAP	12	0	3
TAP	12	96	4
TAP	12	192	3
TAP	13	0	4
TAP	13	96	4
TAP	13	192	4
TAP	14	0	5
TAP	14	96	5
TAP	14	192	5
TAP	15	0	6
TAP	15	96	6
TAP	15	192	6
TAP	16	0	7
TAP	16	96	0
BRK	16	192	7
TAP	17	0	7
TAP	17	96	7
TAP	17	192	7
HLD	18	0	7	192
TAP	19	0	6
TAP	19	96	6
TAP	19	192	6
TAP	20	0	5
TAP	20	96	4
TAP	20	192	5
TAP	21	0	3
TAP	21	96	3
TAP	21	192	3
HLD	22	0	3	192
TAP	23	0	2
TAP	23	96	2
TAP	23	192	2
TAP	24	0	1
TAP	24	96	0
TAP	24	192	1
TAP	25	0	0
TAP	25	96	0
TAP	25	192	0
HLD	26	0	0	192
TAP	27	0	1
TAP	27	96	1
TAP	27	192	1
TAP	28	0	2
TAP	28	96	3
TAP	28	192	2
TAP	29	0	4
TAP	29	96	4
TAP	29	192	4
HLD	30	0	4	192
TAP	31	0	5
TAP	31	96	5
TAP	31	192	5
HLD	32	0	6	192
HLD	32	0	7	192
STR	33	0	0
SI_	33	0	0	96	288	4
STR	35	0	7
SI_	35	0	7	96	288	3
STR	37	0	0
SI_	37	0	0	96	288	4
STR	39	0	7
SI_	39	0	7	96	288	3
TAP	41	0	0
TAP	41	96	0
TAP	41	192	0
TAP	41	192	7
TAP	42	0	7
TAP	42	96	7
TAP	42	192	0
TAP	42	192	7
TAP	43	0	0
TAP	43	96	0
TAP	43	192	0
TAP	43	192	7
TAP	44	0	7
TAP	44	96	7
TAP	44	192	0
TAP	44	192	7
TAP	45	0	0
TAP	45	96	0
TAP	45	192	1
TAP	45	288	1
TAP	46	0	2
TAP	46	96	2
TAP	46	192	3
TAP	46	192	4
TAP	47	0	4
TAP	47	96	4
TAP	47	192	5
TAP	47	288	5
TAP	48	0	6
TAP	48	96	6
TAP	48	192	0
TAP	48	192	7
TAP	49	0	7
TAP	49	96	7
TAP	49	192	0
TAP	49	192	7
TAP	50	0	0
TAP	50	96	0
TAP	50	192	0
TAP	50	192	7
TAP	51	0	6
TAP	51	96	7
TAP	51	192	6
TAP	52	0	1
TAP	52	96	0
TAP	52	192	1
TAP	53	0	7
TAP	53	96	7
TAP	53	192	6
TAP	53	288	6
TAP	54	0	5
TAP	54	96	5
TAP	54	192	3
TAP	54	192	4
TAP	55	0	3
TAP	55	96	3
TAP	55	192	2
TAP	55	288	2
TAP	56	0	1
TAP	56	96	1
BRK	56	192	0
BRK	56	192	7
TAP	57	0	0
TAP	57	96	0
TAP	57	192	7
TAP	57	288	7
HLD	58	0	0	192
TAP	59	0	1
TAP	59	96	1
TAP	59	192	2
TAP	59	288	2
TAP	60	0	3
TAP	60	96	4
TAP	60	192	3
TAP	61	0	4
TAP	61	96	4
TAP	61	192	3
TAP	61	288	3
HLD	62	0	4	192
TAP	63	0	5
TAP	63	96	5
TAP	63	192	6
TAP	63	288	6
HLD	64	0	0	192
HLD	64	0	7	192
TAP	65	0	7
TAP	65	96	7
TAP	65	192	0
TAP	65	288	0
HLD	66	0	7	192
TAP	67	0	6
TAP	67	96	6
TAP	67	192	5
TAP	67	288	5
TAP	68	0	4
TAP	68	96	3
TAP	68	192	4
TAP	69	0	3
TAP	69	96	3
TAP	69	192	4
TAP	69	288	4
HLD	70	0	3	192
TAP	71	0	2
TAP	71	96	2
TAP	71	192	1
TAP	71	288	1
HLD	72	0	0	192
HLD	72	0	7	192
TAP	73	0	0
TAP	73	0	1
TAP	73	192	0
TAP	73	192	1
TAP	74	0	2
TAP	74	96	2
TAP	74	192	2
TAP	74	192	3
TAP	75	0	3
TAP	75	96	3
TAP	75	192	4
TAP	75	288	4
TAP	76	0	5
TAP	76	96	5
TAP	76	192	4
TAP	76	192	5
TAP	77	0	6
TAP	77	0	7
TAP	77	192	6
TAP	77	192	7
TAP	78	0	5
TAP	78	96	5
TAP	78	192	4
TAP	78	192	5
TAP	79	0	4
TAP	79	96	4
TAP	79	192	3
TAP	79	288	3
TAP	80	0	2
TAP	80	96	2
TAP	80	192	2
TAP	80	192	3
STR	81	0	1
SI_	81	0	1	96	288	4
TAP	83	0	5
TAP	83	96	5
TAP	83	192	5
TAP	84	0	6
TAP	84	0	7
TAP	84	96	6
TAP	84	96	7
TAP	84	192	6
TAP	84	192	7
STR	85	0	6
SI_	85	0	6	96	288	3
TAP	87	0	2
TAP	87	96	2
TAP	87	192	2
TAP	88	0	0
TAP	88	0	1
TAP	88	96	0
TAP	88	96	1
BRK	88	192	0
BRK	88	192	1
TAP	89	0	0
TAP	89	96	0
TAP	89	192	0
TAP	89	288	0
TAP	90	0	1
TAP	90	96	1
TAP	90	192	1
TAP	91	0	2
TAP	91	96	2
TAP	91	192	2
TAP	91	288	2
TAP	92	0	3
TAP	92	96	4
TAP	92	192	3
TAP	93	0	4
TAP	93	96	4
TAP	93	192	4
TAP	93	288	4
TAP	94	0	5
TAP	94	96	5
TAP	94	192	5
TAP	95	0	6
TAP	95	96	6
TAP	95	192	6
TAP	95	288	6
TAP	96	0	7
TAP	96	96	0
TAP	96	192	7
TAP	97	0	7
TAP	97	96	7
TAP	97	192	7
TAP	97	288	7
TAP	98	0	6
TAP	98	96	6
TAP	98	192	6
TAP	99	0	5
TAP	99	96	5
TAP	99	192	5
TAP	99	288	5
TAP	100	0	4
TAP	100	96	3
TAP	100	192	4
TAP	101	0	3
TAP	101	96	3
TAP	101	192	3
TAP	101	288	3
TAP	102	0	2
TAP	102	96	2
TAP	102	192	2
TAP	103	0	1
TAP	103	96	1
TAP	103	192	1
TAP	103	288	1
TAP	104	0	0
TAP	104	0	7
TAP	104	96	0
TAP	104	96	7
TAP	104	192	0
TAP	104	192	7
BRK	105	0	1
BRK	105	0	6

T_REC_TAP	275
T_REC_BRK	7
T_REC_XTP	0
T_REC_HLD	14
T_REC_XHO	0
T_REC_STR	6
T_REC_BST	0
T_REC_XST	0
T_REC_TTP	0
T_REC_THO	0
T_REC_SLD	6
T_REC_ALL	308
T_NUM_TAP	281
T_NUM_BRK	7
T_NUM_HLD	14
T_NUM_SLD	6
T_NUM_ALL	308
T_JUDGE_TAP	288
T_JUDGE_HLD	56
T_JUDGE_SLD	6
T_JUDGE_ALL	350
TTM_EACHPAIRS	33
TTM_SCR_TAP	140500
TTM_SCR_BRK	18200
TTM_SCR_HLD	14000
TTM_SCR_SLD	9000
TTM_SCR_ALL	181700
TTM_SCR_S	175600
TTM_SCR_SS	181000
TTM_RAT_ACV	10038

