VERSION	0.00.00	1.03.00
FES_MODE	0
BPM_DEF	167.000	167.000	167.000	167.000
MET_DEF	4	4
RESOLUTION	384
CLK_DEF	384
COMPATIBLE_CODE	MA2

BPM	0	0	167.000

TAP	2	0	1
TAP	2	0	6
TAP	2	336	3
TAP	2	336	7
TAP	3	48	1
TAP	3	48	5
TAP	3	144	2
TAP	3	144	6
STR	3	240	0
SXL	3	240	0	96	240	3
STR	3	240	4
SXL	3	240	4	96	240	7
TAP	4	288	2
TAP	4	288	4
HLD	4	336	5	96
TAP	5	48	3
TAP	5	96	1
HLD	5	144	2	96
TAP	5	240	4
TAP	5	288	6
HLD	5	336	5	96
TAP	6	48	3
TAP	6	96	0
HLD	6	144	2	96
TAP	6	240	4
TAP	6	288	7
HLD	6	336	6	96
TAP	7	48	4
TAP	7	96	0
HLD	7	144	1	96
TAP	7	240	3
TAP	7	288	7
TAP	7	336	5
TAP	8	0	4
TAP	8	48	5
TAP	8	96	2
TAP	8	96	6
TAP	8	144	1
TAP	8	192	0
TAP	8	240	1
TAP	8	288	3
TAP	8	288	7
TAP	8	336	6
STR	9	0	7
SI_	9	0	7	96	48	3
TAP	9	48	0
BRK	9	96	1
STR	9	192	1
SI_	9	192	1	96	48	4
TAP	9	240	6
BST	9	288	5
SI_	9	288	5	96	48	0
BRK	10	0	2
TAP	10	48	2
TAP	10	96	1
TAP	10	96	7
TAP	10	144	2
TAP	10	192	3
TAP	10	240	2
TAP	10	288	0
TAP	10	288	6
HLD	10	336	5	96
TAP	11	0	4
TAP	11	48	3
TAP	11	96	1
TAP	11	96	7
HLD	11	144	2	96
TAP	11	192	3
TAP	11	240	4
TAP	11	288	0
TAP	11	288	6
TAP	11	336	5
TAP	12	0	4
TAP	12	48	5
TAP	12	96	0
TAP	12	96	1
BRK	12	144	2
BRK	12	144	7
TAP	12	192	3
TAP	12	240	4
TAP	12	288	6
TAP	12	288	7
BRK	12	336	0
BRK	12	336	5
TAP	13	0	4
TAP	13	48	3
TAP	13	96	1
TAP	13	96	7
TAP	13	144	2
TAP	13	192	3
TAP	13	240	2
TAP	13	288	0
TAP	13	288	7
BRK	13	336	1
BRK	13	336	6
TAP	14	0	4
TAP	14	48	3
TAP	14	96	1
TAP	14	96	7
TAP	14	144	2
TAP	14	192	3
TAP	14	240	2
TAP	14	288	0
TAP	14	288	6
HLD	14	336	5	96
TAP	15	0	4
TAP	15	48	3
TAP	15	96	1
TAP	15	96	4
HLD	15	144	2	96
TAP	15	192	3
TAP	15	240	4
TAP	15	288	3
TAP	15	288	6
TAP	15	336	5
TAP	16	0	4
TAP	16	48	5
TAP	16	96	3
TAP	16	96	6
TAP	16	144	2
TAP	16	192	3
TAP	16	240	1
TAP	16	240	4
TAP	16	288	5
TAP	16	336	3
TAP	16	336	7
STR	17	48	1
SXL	17	48	1	96	168	4
STR	17	48	5
SXL	17	48	5	96	168	0
TAP	18	0	2
TAP	18	24	3
TAP	18	48	2
TAP	18	96	1
TAP	18	96	4
TAP	18	144	0
TAP	18	192	7
STR	18	240	0
SI_	18	240	0	96	48	3
TAP	18	288	7
STR	18	336	0
SI_	18	336	0	96	48	5
STR	19	48	0
SCR	19	48	0	96	48	3
STR	19	144	0
SCL	19	144	0	96	48	5
TAP	19	240	0
HLD	19	336	0	96
TAP	20	48	7
STR	20	96	6
SI_	20	96	6	96	48	2
STR	20	96	7
SI_	20	96	7	96	48	3
TAP	20	192	6
TAP	20	192	7
STR	20	336	0
SI_	20	336	0	96	48	4
TAP	21	48	6
STR	21	144	7
SI_	21	144	7	96	48	3
TAP	21	240	1
TAP	22	0	5
TAP	22	24	4
TAP	22	48	5
TAP	22	96	3
TAP	22	96	6
TAP	22	144	7
TAP	22	192	0
STR	22	240	7
SI_	22	240	7	96	48	4
TAP	22	288	0
STR	22	336	7
SI_	22	336	7	96	48	2
STR	23	48	7
SCL	23	48	7	96	48	4
STR	23	144	7
SCR	23	144	7	96	48	2
STR	23	240	7
SI_	23	240	7	96	48	3
TAP	23	336	7
TAP	24	48	0
TAP	24	48	1
TAP	24	120	2
TAP	24	120	3
TAP	24	192	4
TAP	24	192	5
TAP	24	264	6
TAP	24	264	7
HLD	24	336	1	48
HLD	24	336	5	48
TAP	25	48	2
BRK	25	48	6
BRK	25	120	1
TAP	25	120	5
TAP	25	192	3
BRK	25	192	7
BRK	25	264	0
TAP	25	264	4
TAP	25	336	2
BRK	25	336	6
STR	26	0	0
SI_	26	0	0	96	48	4
TAP	26	96	7
TAP	26	192	6
TAP	26	240	2
TAP	26	288	4
TAP	26	336	3
TAP	27	0	4
TAP	27	48	2
TAP	27	96	1
TAP	27	96	4
TAP	27	144	3
TAP	27	192	4
TAP	27	240	5
TAP	27	288	4
TAP	27	288	6
TAP	27	336	3
TAP	28	0	4
TAP	28	48	2
HLD	28	96	1	96
TAP	28	96	3
TAP	28	192	7
TAP	28	240	3
STR	28	240	6
SI_	28	240	6	96	48	2
STR	28	336	0
SI_	28	336	0	96	48	4
STR	29	48	7
SI_	29	48	7	96	48	3
STR	29	144	1
SI_	29	144	1	96	48	5
TAP	29	240	7
TAP	29	288	7
TAP	30	0	1
TAP	30	48	0
TAP	30	96	2
TAP	30	96	7
TAP	30	144	6
TAP	30	192	7
TAP	30	240	6
TAP	30	288	0
TAP	30	288	5
TAP	30	336	1
TAP	31	0	3
TAP	31	48	2
TAP	31	96	3
TAP	31	96	6
TAP	31	144	5
TAP	31	192	4
STR	31	240	3
SXR	31	240	3	96	240	0
STR	31	240	5
SXL	31	240	5	96	240	0
TAP	32	336	0
TAP	32	336	7
TAP	33	0	1
TAP	33	0	5
TAP	33	48	3
TAP	33	48	6
TAP	33	96	1
TAP	33	96	4
TAP	33	144	3
TAP	33	144	5
TAP	33	192	2
STR	33	192	4
SI_	33	192	4	96	48	1
BRK	33	288	6
HLD	34	0	0	96
TAP	34	96	3
TAP	34	144	5
HLD	34	192	7	96
TAP	34	288	4
TAP	34	336	2
TAP	35	0	0
TAP	35	48	7
TAP	35	96	6
TAP	35	144	5
TAP	35	192	4
STR	35	192	5
SI_	35	192	5	96	48	0
TAP	35	288	2
STR	36	0	1
SUR	36	0	1	96	48	5
TAP	36	96	7
STR	36	192	6
SUL	36	192	6	96	48	2
TAP	36	288	0
TAP	37	0	1
TAP	37	48	0
TAP	37	96	1
STR	37	144	0
SCL	37	144	0	96	48	5
TAP	37	240	3
TAP	37	288	3
STR	38	0	2
SI_	38	0	2	96	48	7
TAP	38	48	3
TAP	38	96	4
STR	38	192	5
SI_	38	192	5	96	48	0
TAP	38	240	4
TAP	38	288	3
TAP	39	0	1
TAP	39	48	6
TAP	39	96	0
TAP	39	144	7
STR	39	192	1
SI_	39	192	1	96	48	4
STR	39	192	6
SI_	39	192	6	96	48	3
BRK	40	0	0
TAP	40	0	1
TAP	40	72	5
BRK	40	72	6
BRK	40	144	2
TAP	40	144	3
BRK	40	192	4
TAP	40	192	5
TAP	40	264	1
BRK	40	264	2
BRK	40	336	6
TAP	40	336	7
BRK	41	0	0
TAP	41	24	7
TAP	41	48	0
TAP	41	72	7
TAP	41	96	1
TAP	41	120	6
TAP	41	144	1
TAP	41	168	6
TAP	41	192	2
TAP	41	216	3
TAP	41	240	4
TAP	41	264	5
TAP	41	288	6
TAP	41	312	7
TAP	41	336	0
TAP	41	360	1
STR	42	0	7
SI_	42	0	7	96	48	3
TAP	42	48	7
TAP	42	96	0
TAP	42	144	0
STR	42	192	1
SI_	42	192	1	96	48	5
TAP	42	240	1
TAP	42	288	7
TAP	42	336	7
HLD	43	0	6	48
TAP	43	48	7
HLD	43	96	1	48
TAP	43	144	0
HLD	43	192	5	48
TAP	43	240	4
HLD	43	288	2	48
TAP	43	336	3
TAP	44	0	2
TAP	44	0	3
STR	44	48	2
SUL	44	48	2	96	192	7
STR	44	48	3
SXL	44	48	3	96	192	6
TAP	44	96	2
TAP	44	96	3
TAP	44	144	2
TAP	44	144	3
TAP	45	48	1
TAP	45	96	0
TAP	45	144	1
TAP	45	192	6
TAP	45	240	5
TAP	45	240	7
HLD	45	336	1	96
TAP	46	48	0
STR	46	96	0
SI_	46	96	0	96	48	5
STR	46	96	1
SI_	46	96	1	96	48	4
TAP	46	192	0
TAP	46	192	1
HLD	46	336	6	96
TAP	47	48	7
STR	47	96	6
SI_	47	96	6	96	48	3
STR	47	96	7
SI_	47	96	7	96	48	2
TAP	47	192	6
TAP	47	192	7
HLD	47	336	1	96
TAP	48	48	0
HLD	48	96	6	48
TAP	48	144	7
HLD	48	192	1	48
STR	48	240	0
SXR	48	240	0	96	144	4
HLD	48	288	6	192
TAP	48	336	0
TAP	49	192	2
TAP	49	216	3
TAP	49	240	2
TAP	49	264	3
TAP	49	288	1
TAP	49	312	4
TAP	49	336	1
TAP	49	360	4
STR	50	0	0
SI_	50	0	0	96	48	4
TAP	50	48	0
TAP	50	96	7
TAP	50	144	7
STR	50	192	6
SI_	50	192	6	96	48	2
TAP	50	240	6
TAP	50	288	0
TAP	50	336	0
HLD	51	0	1	48
TAP	51	48	0
HLD	51	96	6	48
TAP	51	144	7
HLD	51	192	2	48
TAP	51	240	3
HLD	51	288	5	48
TAP	51	336	4
TAP	52	0	4
TAP	52	0	5
STR	52	48	4
SUL	52	48	4	96	192	1
STR	52	48	5
SXL	52	48	5	96	192	0
TAP	52	96	4
TAP	52	96	5
TAP	52	144	4
TAP	52	144	5
TAP	53	48	4
TAP	53	96	3
TAP	53	144	4
TAP	53	192	3
TAP	53	192	5
TAP	53	240	2
TAP	53	240	6
HLD	53	336	0	96
TAP	54	48	4
STR	54	96	2
SI_	54	96	2	96	48	7
STR	54	96	6
SI_	54	96	6	96	48	3
TAP	54	192	2
TAP	54	192	6
HLD	54	336	7	96
TAP	55	48	3
STR	55	96	1
SI_	55	96	1	96	48	4
STR	55	96	5
SI_	55	96	5	96	48	0
TAP	55	192	1
TAP	55	192	5
HLD	55	336	6	96
TAP	56	48	7
HLD	56	96	1	48
TAP	56	144	0
HLD	56	192	6	48
STR	56	240	7
SXL	56	240	7	96	144	3
HLD	56	288	1	192
TAP	56	336	7
TAP	57	192	1
TAP	57	216	2
TAP	57	240	3
TAP	57	264	4
TAP	57	288	5
TAP	57	312	6
TAP	57	336	7
TAP	57	360	0
TAP	58	0	1
STR	58	96	0
SI_	58	96	0	96	48	4
STR	58	96	1
SI_	58	96	1	96	48	5
TAP	58	192	0
TAP	58	192	1
TAP	58	336	2
STR	58	336	3
SI_	58	336	3	96	48	7
TAP	59	48	0
TAP	59	144	0
STR	59	192	0
SF_	59	192	0	96	48	4
TAP	59	288	0
STR	60	96	6
SI_	60	96	6	96	48	2
STR	60	96	7
SI_	60	96	7	96	48	3
TAP	60	192	6
TAP	60	192	7
STR	60	336	4
SI_	60	336	4	96	48	0
TAP	60	336	5
TAP	61	48	7
TAP	61	144	7
STR	61	192	7
SF_	61	192	7	96	48	3
TAP	61	288	7
STR	62	96	3
SCL	62	96	3	96	48	0
STR	62	96	7
SCL	62	96	7	96	48	4
TAP	62	192	3
TAP	62	192	7
STR	62	336	2
SI_	62	336	2	96	48	6
TAP	63	48	7
TAP	63	144	5
STR	63	192	5
SI_	63	192	5	96	48	0
TAP	63	288	3
STR	64	0	2
SUL	64	0	2	96	72	6
TAP	64	96	4
STR	64	144	4
SUR	64	144	4	96	72	1
TAP	64	240	3
STR	64	288	3
SCL	64	288	3	96	144	4
BRK	65	192	3
BRK	65	192	7
BRK	65	264	0
BRK	65	264	4
BRK	65	336	2
BRK	65	336	6
STR	66	96	5
SI_	66	96	5	96	48	0
STR	66	96	7
SI_	66	96	7	96	48	2
TAP	66	192	5
TAP	66	192	7
STR	66	336	4
SI_	66	336	4	96	48	1
STR	66	336	6
SI_	66	336	6	96	48	3
TAP	67	48	4
TAP	67	48	6
TAP	67	144	0
STR	67	192	0
SF_	67	192	0	96	48	4
TAP	67	288	0
STR	68	96	0
SI_	68	96	0	96	48	5
STR	68	96	2
SI_	68	96	2	96	48	7
TAP	68	192	0
TAP	68	192	2
STR	68	336	1
SI_	68	336	1	96	48	4
STR	68	336	3
SI_	68	336	3	96	48	6
TAP	69	48	1
TAP	69	48	3
TAP	69	144	7
STR	69	192	7
SF_	69	192	7	96	48	3
TAP	69	288	7
STR	70	96	1
SV_	70	96	1	96	48	4
STR	70	96	5
SV_	70	96	5	96	48	0
TAP	70	192	1
TAP	70	192	5
STR	70	336	2
SV_	70	336	2	96	48	7
STR	70	336	6
SV_	70	336	6	96	48	3
TAP	71	48	2
TAP	71	48	6
TAP	71	144	4
TAP	71	192	0
TAP	71	288	1
TAP	71	288	6
STR	72	0	7
SI_	72	0	7	96	48	3
TAP	72	48	7
STR	72	96	0
SI_	72	96	0	96	48	4
TAP	72	144	0
STR	72	192	7
SLL	72	192	7	96	96	1
TAP	72	240	7
STR	72	288	0
SCR	72	288	0	96	144	7
TAP	72	336	0
STR	73	192	0
SF_	73	192	0	96	48	4
BRK	73	288	0
TAP	74	0	6
TAP	74	24	7
TAP	74	48	6
TAP	74	72	7
TAP	74	96	6
TAP	74	144	0
TAP	74	192	4
TAP	74	240	2
TAP	74	288	7
STR	74	336	1
SCL	74	336	1	96	96	6
STR	75	48	6
SI_	75	48	6	96	96	2
STR	75	144	2
SCR	75	144	2	96	96	5
TAP	75	240	5
TAP	75	336	7
TAP	76	48	6
TAP	76	48	7
STR	76	96	6
SI_	76	96	6	96	48	2
STR	76	96	7
SI_	76	96	7	96	48	3
TAP	76	192	6
TAP	76	192	7
STR	76	336	2
SCL	76	336	2	96	48	7
TAP	77	48	4
STR	77	144	5
SCR	77	144	5	96	48	0
TAP	77	240	3
TAP	78	0	1
TAP	78	24	0
TAP	78	48	1
TAP	78	72	0
TAP	78	96	1
TAP	78	144	7
TAP	78	192	3
TAP	78	240	5
TAP	78	288	0
STR	78	336	7
SI_	78	336	7	96	48	4
STR	79	48	0
SI_	79	48	0	96	48	3
STR	79	144	5
SI_	79	144	5	96	48	2
TAP	79	240	0
TAP	79	288	1
TAP	79	336	1
TAP	80	48	2
TAP	80	48	6
TAP	80	120	1
TAP	80	120	5
TAP	80	192	3
TAP	80	192	7
TAP	80	264	0
TAP	80	264	4
TAP	80	336	2
TAP	80	336	6
HLD	81	48	0	48
HLD	81	48	4	48
HLD	81	120	3	48
HLD	81	120	7	48
HLD	81	192	1	48
HLD	81	192	5	48
HLD	81	264	2	48
HLD	81	264	6	48
BRK	81	336	0
BRK	81	336	4

T_REC_TAP	391
T_REC_BRK	30
T_REC_XTP	0
T_REC_HLD	44
T_REC_XHO	0
T_REC_STR	97
T_REC_BST	1
T_REC_XST	0
T_REC_TTP	0
T_REC_THO	0
T_REC_SLD	98
T_REC_ALL	661
T_NUM_TAP	488
T_NUM_BRK	31
T_NUM_HLD	44
T_NUM_SLD	98
T_NUM_ALL	661
T_JUDGE_TAP	519
T_JUDGE_HLD	70
T_JUDGE_SLD	98
T_JUDGE_ALL	687
TTM_EACHPAIRS	119
TTM_SCR_TAP	244000
TTM_SCR_BRK	80600
TTM_SCR_HLD	44000
TTM_SCR_SLD	147000
TTM_SCR_ALL	515600
TTM_SCR_S	497150
TTM_SCR_SS	512500
TTM_RAT_ACV	10060

