VERSION	0.00.00	1.03.00
FES_MODE	0
BPM_DEF	167.000	167.000	167.000	167.000
MET_DEF	4	4
RESOLUTION	384
CLK_DEF	384
COMPATIBLE_CODE	MA2

BPM	0	0	167.000

BRK	2	0	1
BRK	2	0	6
TAP	2	336	4
TAP	2	336	5
TAP	3	48	2
TAP	3	48	3
TAP	3	144	0
TAP	3	144	1
TAP	3	240	6
STR	3	240	7
SSR	3	240	7	96	240	3
TAP	4	288	2
TAP	4	288	4
HLD	4	336	2	144
TAP	4	336	4
TAP	5	96	3
HLD	5	192	5	96
TAP	5	288	4
HLD	6	0	2	96
TAP	6	96	3
TAP	6	192	4
TAP	6	288	3
TAP	6	288	4
HLD	7	0	5	96
TAP	7	96	4
HLD	7	192	2	96
TAP	7	288	3
HLD	8	0	5	96
TAP	8	96	4
TAP	8	192	3
TAP	8	288	2
TAP	8	288	4
TAP	9	0	5
TAP	9	48	5
BRK	9	96	4
BRK	9	96	6
TAP	9	192	2
TAP	9	240	2
BRK	9	288	1
BRK	9	288	3
TAP	10	0	4
TAP	10	96	3
TAP	10	192	2
TAP	10	192	4
HLD	10	240	2	96
TAP	10	240	4
TAP	10	336	3
TAP	11	48	3
HLD	11	48	5	96
TAP	11	144	4
TAP	11	240	3
TAP	11	240	5
TAP	11	288	3
TAP	11	288	5
HLD	12	0	2	144
TAP	12	0	5
TAP	12	96	3
TAP	12	144	3
TAP	12	240	1
TAP	12	240	4
TAP	12	336	2
HLD	12	336	5	144
TAP	13	48	4
TAP	13	96	4
TAP	13	192	3
HLD	13	192	6	144
TAP	13	288	7
TAP	13	336	7
TAP	14	48	4
TAP	14	48	5
TAP	14	96	4
TAP	14	96	5
HLD	14	192	2	96
TAP	14	192	4
TAP	14	288	3
TAP	15	0	3
HLD	15	0	5	96
TAP	15	96	4
HLD	15	192	2	96
TAP	15	192	4
STR	15	288	3
SXL	15	288	3	96	192	5
SXR	15	288	3	96	192	1
TAP	16	288	7
TAP	16	336	7
TAP	17	48	0
TAP	17	48	6
TAP	17	144	1
TAP	17	144	5
BRK	17	192	1
BRK	17	192	5
TAP	18	0	5
TAP	18	48	5
TAP	18	96	4
TAP	18	192	2
TAP	18	288	1
TAP	18	288	3
HLD	18	336	1	96
TAP	18	336	3
HLD	19	48	3	96
HLD	19	144	4	96
TAP	19	240	6
TAP	19	336	3
TAP	19	336	4
TAP	20	48	1
TAP	20	48	3
TAP	20	96	1
TAP	20	96	3
HLD	20	192	0	96
HLD	20	192	7	96
TAP	20	336	0
TAP	20	336	7
TAP	21	48	2
TAP	21	48	5
STR	21	144	1
SI_	21	144	1	96	48	3
STR	21	144	6
SI_	21	144	6	96	48	4
TAP	22	0	2
TAP	22	48	2
TAP	22	96	3
TAP	22	192	5
TAP	22	288	4
TAP	22	288	5
TAP	22	336	4
TAP	22	336	5
TAP	23	48	2
TAP	23	48	3
TAP	23	144	0
TAP	23	144	1
TAP	23	192	0
STR	23	192	1
SI_	23	192	1	96	48	4
TAP	24	0	5
HLD	24	48	5	72
HLD	24	120	4	72
HLD	24	192	3	72
HLD	24	264	2	72
STR	24	336	1
SCL	24	336	1	96	144	4
BRK	25	288	1
BRK	25	288	6
HLD	26	0	2	192
TAP	26	96	3
TAP	26	192	5
TAP	26	288	4
TAP	26	288	6
HLD	27	0	5	192
TAP	27	96	4
TAP	27	192	2
TAP	27	288	1
TAP	27	288	3
TAP	28	0	2
TAP	28	0	4
TAP	28	96	3
TAP	28	96	5
TAP	28	192	1
TAP	28	192	6
TAP	28	240	1
TAP	28	240	6
HLD	29	0	6	96
HLD	29	96	5	96
TAP	29	192	4
TAP	29	288	2
TAP	29	288	3
TAP	30	0	4
HLD	30	0	5	192
TAP	30	96	2
TAP	30	192	4
TAP	30	288	3
TAP	30	288	6
HLD	31	0	2	192
TAP	31	0	3
TAP	31	96	5
TAP	31	192	3
STR	31	288	1
SCL	31	288	1	96	192	4
TAP	31	288	4
TAP	32	288	1
TAP	32	288	6
TAP	33	0	4
TAP	33	48	4
TAP	33	96	2
TAP	33	144	2
BRK	33	192	1
BRK	33	192	3
HLD	34	0	5	192
TAP	34	144	4
TAP	34	192	4
TAP	34	288	3
TAP	34	288	4
HLD	35	0	2	192
TAP	35	144	3
TAP	35	192	3
TAP	35	288	3
TAP	35	288	4
TAP	36	0	5
TAP	36	96	4
TAP	36	96	6
TAP	36	192	3
STR	36	288	2
SCL	36	288	2	96	144	7
STR	36	288	4
SXL	36	288	4	96	144	6
TAP	37	288	3
TAP	37	288	4
TAP	38	0	2
HLD	38	0	3	192
TAP	38	144	1
TAP	38	192	1
TAP	38	288	2
TAP	38	288	4
HLD	39	0	4	192
TAP	39	0	5
TAP	39	144	6
TAP	39	192	6
TAP	39	288	3
TAP	39	288	5
HLD	40	0	2	72
HLD	40	72	3	72
TAP	40	144	2
HLD	40	192	5	72
HLD	40	264	4	72
TAP	40	336	5
BRK	41	0	3
BRK	41	0	6
TAP	41	192	2
TAP	41	192	3
TAP	41	240	2
STR	41	240	3
SCL	41	240	3	96	216	4
SUL	41	240	3	96	216	4
STR	42	288	1
SI_	42	288	1	96	48	4
STR	43	0	7
SI_	43	0	7	96	48	3
STR	43	96	0
SI_	43	96	0	96	48	4
STR	43	192	6
SI_	43	192	6	96	48	3
TAP	43	288	2
TAP	44	0	2
TAP	44	0	3
STR	44	48	2
SCL	44	48	2	96	144	6
STR	44	48	3
SUL	44	48	3	96	144	5
HLD	45	0	3	96
TAP	45	0	4
TAP	45	96	7
TAP	45	192	1
TAP	45	192	5
TAP	45	240	1
TAP	45	240	5
TAP	45	336	6
TAP	45	336	7
TAP	46	48	0
TAP	46	48	1
STR	46	96	0
SI_	46	96	0	96	48	5
STR	46	96	1
SI_	46	96	1	96	48	4
TAP	46	336	3
TAP	46	336	6
TAP	47	48	0
TAP	47	48	1
STR	47	96	0
SCL	47	96	0	96	48	5
STR	47	96	1
SCR	47	96	1	96	48	4
TAP	47	336	3
TAP	47	336	6
TAP	48	48	2
TAP	48	96	3
TAP	48	144	2
TAP	48	192	5
TAP	48	240	4
TAP	48	288	5
HLD	48	336	3	96
HLD	48	336	6	96
BRK	49	96	3
BRK	49	96	6
TAP	49	192	4
TAP	49	192	5
STR	49	240	4
SCR	49	240	4	96	216	3
SUR	49	240	4	96	216	3
TAP	49	240	5
STR	50	288	6
SI_	50	288	6	96	48	3
STR	51	0	0
SI_	51	0	0	96	48	4
STR	51	96	7
SI_	51	96	7	96	48	3
STR	51	192	1
SI_	51	192	1	96	48	4
TAP	51	288	5
TAP	52	0	4
TAP	52	0	5
STR	52	48	4
SUR	52	48	4	96	144	2
STR	52	48	5
SCR	52	48	5	96	144	1
HLD	53	0	0	96
TAP	53	0	7
TAP	53	96	4
TAP	53	192	2
TAP	53	192	6
TAP	53	240	2
TAP	53	240	6
TAP	53	336	0
TAP	53	336	1
TAP	54	48	6
TAP	54	48	7
STR	54	96	6
SI_	54	96	6	96	48	3
STR	54	96	7
SI_	54	96	7	96	48	2
TAP	54	336	1
TAP	54	336	4
TAP	55	48	6
TAP	55	48	7
STR	55	96	6
SCL	55	96	6	96	48	3
STR	55	96	7
SCR	55	96	7	96	48	2
TAP	55	336	1
TAP	55	336	4
TAP	56	48	6
TAP	56	96	7
TAP	56	144	6
TAP	56	192	1
STR	56	240	0
SXR	56	240	0	96	240	4
TAP	56	288	1
BRK	57	288	2
BRK	57	288	6
STR	58	0	0
SI_	58	0	0	96	48	3
STR	58	96	7
SI_	58	96	7	96	48	4
TAP	58	192	1
TAP	58	288	2
HLD	58	336	2	96
TAP	59	48	4
TAP	59	144	0
TAP	59	144	6
TAP	59	192	0
TAP	59	192	6
TAP	59	288	2
TAP	59	288	7
STR	60	0	1
SI_	60	0	1	96	48	4
STR	60	96	7
SI_	60	96	7	96	48	3
TAP	60	192	1
TAP	60	288	2
HLD	60	336	2	96
TAP	61	48	5
TAP	61	144	6
TAP	61	144	7
TAP	61	192	6
TAP	61	192	7
TAP	61	288	0
TAP	61	288	5
STR	62	0	6
SI_	62	0	6	96	48	3
STR	62	96	0
SI_	62	96	0	96	48	4
TAP	62	192	6
TAP	62	288	5
HLD	62	336	5	96
TAP	63	48	0
TAP	63	144	1
TAP	63	144	3
TAP	63	192	1
TAP	63	192	3
TAP	63	288	6
TAP	63	288	7
HLD	64	0	4	96
HLD	64	0	5	96
HLD	64	144	2	96
HLD	64	144	3	96
TAP	64	288	1
TAP	64	288	4
HLD	65	0	2	96
HLD	65	0	5	96
BRK	65	192	0
BRK	65	192	6
BRK	65	264	0
BRK	65	264	6
BRK	65	336	1
BRK	65	336	7
TAP	66	0	1
STR	66	0	7
SI_	66	0	7	96	48	3
STR	66	96	0
SI_	66	96	0	96	48	4
TAP	66	192	6
TAP	66	288	5
HLD	66	336	5	96
TAP	67	48	4
TAP	67	144	3
TAP	67	144	6
TAP	67	192	3
TAP	67	192	6
TAP	67	288	0
TAP	67	288	5
STR	68	0	6
SI_	68	0	6	96	48	2
TAP	68	0	7
STR	68	96	0
SI_	68	96	0	96	48	4
TAP	68	192	5
TAP	68	288	6
HLD	68	336	6	96
TAP	69	48	7
TAP	69	144	0
TAP	69	144	5
TAP	69	192	0
TAP	69	192	5
BRK	69	288	2
BRK	69	288	7
TAP	70	0	0
STR	70	0	1
SI_	70	0	1	96	48	4
STR	70	96	0
SI_	70	96	0	96	48	5
TAP	70	192	2
TAP	70	288	3
HLD	70	336	3	96
TAP	71	48	6
TAP	71	144	0
TAP	71	144	5
TAP	71	192	0
TAP	71	192	5
BRK	71	288	1
BRK	71	288	7
TAP	72	0	0
TAP	72	48	0
TAP	72	96	7
TAP	72	144	7
TAP	72	192	0
TAP	72	192	7
TAP	72	240	1
TAP	72	240	6
TAP	72	288	2
TAP	72	288	5
BRK	72	336	3
BST	72	336	4
SCR	72	336	4	96	240	3
TAP	74	0	1
TAP	74	48	1
TAP	74	96	0
TAP	74	192	2
TAP	74	192	7
TAP	74	288	0
TAP	74	288	6
TAP	74	336	0
HLD	74	336	6	96
TAP	75	48	4
HLD	75	144	1	96
TAP	75	144	7
TAP	75	240	3
TAP	75	336	4
TAP	75	336	5
TAP	76	48	1
TAP	76	48	6
STR	76	96	1
SI_	76	96	1	96	48	4
STR	76	96	6
SI_	76	96	6	96	48	3
TAP	76	336	2
TAP	76	336	5
TAP	77	48	0
TAP	77	48	7
STR	77	144	2
SI_	77	144	2	96	48	7
STR	77	144	5
SI_	77	144	5	96	48	0
TAP	78	0	6
TAP	78	48	6
TAP	78	96	7
TAP	78	192	0
TAP	78	192	5
TAP	78	288	2
TAP	78	288	7
TAP	78	336	2
TAP	78	336	7
TAP	79	48	0
TAP	79	48	1
TAP	79	144	6
TAP	79	144	7
STR	79	192	6
SI_	79	192	6	96	48	3
TAP	79	192	7
TAP	80	0	1
HLD	80	48	1	72
HLD	80	120	3	72
HLD	80	192	2	72
HLD	80	264	5	72
TAP	80	336	4
HLD	81	48	6	72
HLD	81	120	3	72
HLD	81	192	4	72
TAP	81	264	1
BRK	81	336	2
BRK	81	336	7

T_REC_TAP	312
T_REC_BRK	31
T_REC_XTP	0
T_REC_HLD	62
T_REC_XHO	0
T_REC_STR	49
T_REC_BST	1
T_REC_XST	0
T_REC_TTP	0
T_REC_THO	0
T_REC_SLD	53
T_REC_ALL	508
T_NUM_TAP	361
T_NUM_BRK	32
T_NUM_HLD	62
T_NUM_SLD	53
T_NUM_ALL	508
T_JUDGE_TAP	393
T_JUDGE_HLD	144
T_JUDGE_SLD	53
T_JUDGE_ALL	590
TTM_EACHPAIRS	146
TTM_SCR_TAP	180500
TTM_SCR_BRK	83200
TTM_SCR_HLD	62000
TTM_SCR_SLD	79500
TTM_SCR_ALL	405200
TTM_SCR_S	389950
TTM_SCR_SS	402000
TTM_RAT_ACV	10079

