VERSION	0.00.00	1.03.00
FES_MODE	0
BPM_DEF	167.000	167.000	167.000	167.000
MET_DEF	4	4
RESOLUTION	384
CLK_DEF	384
COMPATIBLE_CODE	MA2

BPM	0	0	167.000

STR	2	0	0
SXL	2	0	0	96	864	3
STR	2	0	7
SXR	2	0	7	96	864	4
HLD	5	0	6	192
TAP	5	96	7
TAP	5	192	7
HLD	6	0	1	192
TAP	6	96	0
TAP	6	192	0
HLD	7	0	5	192
TAP	7	96	4
TAP	7	192	4
HLD	8	0	2	192
TAP	8	96	3
TAP	8	192	3
STR	9	0	3
SI_	9	0	3	96	192	0
STR	9	0	4
SI_	9	0	4	96	192	7
TAP	10	0	1
TAP	10	96	1
TAP	10	192	0
TAP	10	192	1
TAP	11	0	6
TAP	11	96	6
TAP	11	192	6
TAP	11	192	7
TAP	12	0	2
TAP	12	96	2
TAP	12	192	2
TAP	12	192	3
TAP	13	0	5
TAP	13	96	5
TAP	13	192	4
TAP	13	192	5
TAP	14	0	2
TAP	14	96	2
TAP	14	192	1
TAP	14	192	3
TAP	15	0	5
TAP	15	96	5
TAP	15	192	4
TAP	15	192	6
STR	16	0	3
SXR	16	0	3	96	480	0
STR	16	0	4
SXL	16	0	4	96	480	7
TAP	18	0	0
TAP	18	96	1
TAP	18	192	2
TAP	18	288	3
TAP	19	0	4
TAP	19	96	5
TAP	19	192	6
BRK	19	288	7
TAP	20	0	7
TAP	20	96	7
TAP	20	192	0
TAP	20	192	6
TAP	20	288	0
TAP	20	288	6
STR	21	0	1
SUR	21	0	1	96	192	6
TAP	22	0	7
TAP	22	96	6
TAP	22	192	5
TAP	22	288	4
TAP	23	0	3
TAP	23	96	2
TAP	23	192	1
BRK	23	288	0
STR	24	0	0
SI_	24	0	0	96	144	4
TAP	25	0	3
TAP	25	0	4
TAP	25	96	3
TAP	25	96	4
TAP	25	192	2
TAP	25	192	5
HLD	26	0	5	192
TAP	26	192	4
TAP	27	0	5
TAP	27	96	4
TAP	27	192	4
TAP	27	192	5
HLD	28	0	2	192
TAP	28	192	3
TAP	29	0	2
TAP	29	96	3
TAP	29	192	2
TAP	29	192	3
HLD	30	0	5	192
TAP	30	192	4
TAP	31	0	5
TAP	31	96	4
TAP	31	192	4
TAP	31	192	5
HLD	32	0	2	192
TAP	32	192	3
STR	33	0	2
SI_	33	0	2	96	144	7
STR	33	0	3
SI_	33	0	3	96	144	6
HLD	34	0	5	192
TAP	34	96	4
TAP	34	192	4
TAP	35	0	5
TAP	35	96	4
TAP	35	192	3
TAP	35	192	6
HLD	36	0	2	192
TAP	36	96	3
TAP	36	192	3
TAP	37	0	2
TAP	37	96	3
TAP	37	192	1
TAP	37	192	4
HLD	38	0	6	192
TAP	38	96	7
TAP	38	192	7
TAP	39	0	6
TAP	39	96	7
TAP	39	192	0
TAP	39	192	5
BRK	40	0	0
BRK	40	0	1
BRK	40	192	6
BRK	40	192	7
BST	41	0	0
SI_	41	0	0	96	192	4
BST	41	0	7
SI_	41	0	7	96	192	3
TAP	42	0	2
TAP	42	96	2
TAP	42	192	1
TAP	42	192	3
TAP	42	288	1
TAP	42	288	3
TAP	43	0	5
TAP	43	96	5
TAP	43	192	4
TAP	43	192	6
TAP	43	288	4
TAP	43	288	6
TAP	44	0	4
TAP	44	0	5
TAP	44	96	6
TAP	44	96	7
TAP	44	192	0
TAP	44	192	1
TAP	44	288	2
TAP	44	288	3
STR	45	0	4
SI_	45	0	4	96	144	1
STR	45	0	5
SI_	45	0	5	96	144	0
TAP	46	0	1
TAP	46	96	1
TAP	46	192	0
TAP	46	192	2
TAP	46	288	0
TAP	46	288	2
TAP	47	0	6
TAP	47	96	6
TAP	47	192	5
TAP	47	192	7
TAP	47	288	5
TAP	47	288	7
STR	48	0	6
SCR	48	0	6	96	192	1
BRK	49	0	2
BRK	49	96	3
BRK	49	192	5
BRK	49	288	4
TAP	50	0	2
TAP	50	96	2
TAP	50	192	1
TAP	50	192	3
TAP	50	288	1
TAP	50	288	3
TAP	51	0	5
TAP	51	96	5
TAP	51	192	4
TAP	51	192	6
TAP	51	288	4
TAP	51	288	6
TAP	52	0	4
TAP	52	0	5
TAP	52	96	2
TAP	52	96	3
TAP	52	192	0
TAP	52	192	1
TAP	52	288	6
TAP	52	288	7
STR	53	0	4
SI_	53	0	4	96	144	1
STR	53	0	5
SI_	53	0	5	96	144	0
TAP	54	0	1
TAP	54	96	1
TAP	54	192	0
TAP	54	192	2
TAP	54	288	0
TAP	54	288	2
TAP	55	0	6
TAP	55	96	6
TAP	55	192	5
TAP	55	192	7
TAP	55	288	5
TAP	55	288	7
TAP	56	0	0
TAP	56	0	1
TAP	56	96	0
TAP	56	96	1
TAP	56	192	6
TAP	56	192	7
TAP	56	288	6
TAP	56	288	7
TAP	57	0	0
TAP	57	0	7
TAP	57	96	1
TAP	57	96	6
BRK	57	192	2
BRK	57	192	5
HLD	58	0	6	192
TAP	58	96	7
TAP	58	192	7
TAP	59	0	6
TAP	59	0	7
TAP	59	96	6
TAP	59	96	7
TAP	59	192	0
TAP	59	192	5
TAP	59	288	1
TAP	59	288	4
HLD	60	0	2	192
TAP	60	96	3
TAP	60	192	3
TAP	61	0	2
TAP	61	0	3
TAP	61	96	1
TAP	61	96	4
BRK	61	192	0
BRK	61	192	5
HLD	62	0	1	192
TAP	62	96	0
TAP	62	192	0
TAP	63	0	0
TAP	63	0	1
TAP	63	96	0
TAP	63	96	1
TAP	63	192	2
TAP	63	192	7
TAP	63	288	3
TAP	63	288	6
STR	64	0	4
SI_	64	0	4	96	192	1
STR	64	0	5
SI_	64	0	5	96	192	0
TAP	65	0	0
TAP	65	0	7
TAP	65	96	1
TAP	65	96	6
BRK	65	192	2
BRK	65	192	5
HLD	66	0	5	192
TAP	66	96	4
TAP	66	192	4
TAP	67	0	2
TAP	67	0	3
TAP	67	96	2
TAP	67	96	3
TAP	67	192	1
TAP	67	192	4
TAP	67	288	0
TAP	67	288	5
HLD	68	0	6	192
TAP	68	96	7
TAP	68	192	7
TAP	69	0	0
TAP	69	0	1
TAP	69	96	0
TAP	69	96	1
TAP	69	192	2
TAP	69	192	7
TAP	69	288	3
TAP	69	288	6
HLD	70	0	5	192
TAP	70	96	4
TAP	70	192	4
TAP	71	0	2
TAP	71	0	3
TAP	71	96	2
TAP	71	96	3
TAP	71	192	1
TAP	71	192	4
TAP	71	288	0
TAP	71	288	5
TAP	72	0	6
TAP	72	0	7
TAP	72	96	6
TAP	72	96	7
TAP	72	192	0
TAP	72	192	1
TAP	72	288	0
TAP	72	288	1
STR	73	0	0
SI_	73	0	0	96	192	3
STR	73	0	7
SI_	73	0	7	96	192	4
TAP	74	0	5
TAP	74	96	5
TAP	74	192	4
TAP	74	192	5
TAP	75	0	2
TAP	75	96	2
TAP	75	192	2
TAP	75	192	3
TAP	76	0	6
TAP	76	96	6
TAP	76	192	6
TAP	76	192	7
TAP	77	0	1
TAP	77	96	1
TAP	77	192	0
TAP	77	192	1
TAP	78	0	6
TAP	78	96	6
BRK	78	192	5
BRK	78	192	7
TAP	79	0	1
TAP	79	96	1
BRK	79	192	0
BRK	79	192	2
TAP	80	0	0
TAP	80	0	7
TAP	80	96	0
TAP	80	96	7
TAP	80	192	1
TAP	80	192	6
TAP	80	288	1
TAP	80	288	6
TAP	81	0	2
TAP	81	0	5
TAP	81	96	2
TAP	81	96	5
TAP	81	192	3
TAP	81	192	4
TAP	81	288	3
TAP	81	288	4
BRK	82	0	2
BRK	82	0	5

T_REC_TAP	272
T_REC_BRK	22
T_REC_XTP	0
T_REC_HLD	17
T_REC_XHO	0
T_REC_STR	19
T_REC_BST	2
T_REC_XST	0
T_REC_TTP	0
T_REC_THO	0
T_REC_SLD	21
T_REC_ALL	353
T_NUM_TAP	291
T_NUM_BRK	24
T_NUM_HLD	17
T_NUM_SLD	21
T_NUM_ALL	353
T_JUDGE_TAP	315
T_JUDGE_HLD	68
T_JUDGE_SLD	21
T_JUDGE_ALL	404
TTM_EACHPAIRS	104
TTM_SCR_TAP	145500
TTM_SCR_BRK	62400
TTM_SCR_HLD	17000
TTM_SCR_SLD	31500
TTM_SCR_ALL	256400
TTM_SCR_S	246400
TTM_SCR_SS	254000
TTM_RAT_ACV	10094

