VERSION	0.00.00	1.03.00
FES_MODE	0
BPM_DEF	167.000	167.000	167.000	167.000
MET_DEF	4	4
RESOLUTION	384
CLK_DEF	384
COMPATIBLE_CODE	MA2

BPM	0	0	167.000

TAP	5	0	0
TAP	5	192	0
TAP	6	0	1
TAP	6	192	1
TAP	7	0	2
TAP	7	192	2
TAP	8	0	3
TAP	8	192	3
TAP	9	0	3
TAP	9	0	4
TAP	9	192	3
TAP	9	192	4
TAP	10	0	4
TAP	10	192	4
TAP	11	0	5
TAP	11	192	5
TAP	12	0	6
TAP	12	192	6
TAP	13	0	7
TAP	13	192	7
HLD	14	0	0	192
HLD	15	0	7	192
STR	16	0	0
SI_	16	0	0	96	288	3
STR	16	0	7
SI_	16	0	7	96	288	4
TAP	18	0	5
TAP	18	192	5
TAP	19	0	4
TAP	19	192	4
TAP	20	0	3
TAP	20	96	3
TAP	20	192	3
TAP	21	0	4
TAP	21	96	4
TAP	21	192	4
TAP	22	0	3
TAP	22	192	3
TAP	23	0	2
TAP	23	192	2
TAP	24	0	1
TAP	24	96	1
TAP	24	192	1
TAP	25	0	0
TAP	25	96	0
BRK	25	192	0
TAP	26	0	7
TAP	26	96	7
TAP	26	192	7
TAP	27	0	0
TAP	27	96	0
TAP	27	192	0
STR	28	0	7
SI_	28	0	7	96	288	3
TAP	30	0	0
TAP	30	96	0
TAP	30	192	0
TAP	31	0	7
TAP	31	96	7
TAP	31	192	7
STR	32	0	0
SI_	32	0	0	96	288	4
TAP	34	0	5
TAP	34	192	5
TAP	35	0	4
TAP	35	96	4
TAP	35	192	4
TAP	36	0	3
TAP	36	192	3
HLD	37	0	2	192
TAP	38	0	1
TAP	38	192	1
TAP	39	0	0
TAP	39	96	0
TAP	39	192	0
TAP	40	0	0
TAP	40	0	7
TAP	40	192	0
TAP	40	192	7
BRK	41	0	1
BRK	41	0	6
TAP	42	0	7
TAP	42	96	7
TAP	42	192	7
TAP	43	0	6
TAP	43	96	6
TAP	43	192	6
TAP	44	0	5
TAP	44	96	5
TAP	44	192	5
TAP	45	0	3
TAP	45	0	4
TAP	45	192	3
TAP	45	192	4
TAP	46	0	2
TAP	46	96	3
TAP	46	192	2
TAP	47	0	5
TAP	47	96	4
TAP	47	192	5
TAP	48	0	3
TAP	48	96	3
TAP	48	192	3
HLD	49	0	2	192
TAP	50	0	0
TAP	50	96	0
TAP	50	192	0
TAP	51	0	1
TAP	51	96	1
TAP	51	192	1
TAP	52	0	2
TAP	52	96	2
TAP	52	192	2
TAP	53	0	3
TAP	53	0	4
TAP	53	192	3
TAP	53	192	4
TAP	54	0	5
TAP	54	96	4
TAP	54	192	5
TAP	55	0	2
TAP	55	96	3
TAP	55	192	2
TAP	56	0	4
TAP	56	96	4
TAP	56	192	4
HLD	57	0	4	192
HLD	57	0	5	192
TAP	58	0	6
TAP	58	96	6
TAP	58	192	6
TAP	59	0	6
TAP	59	96	6
TAP	59	192	6
TAP	59	192	7
TAP	60	0	1
TAP	60	96	1
TAP	60	192	1
TAP	61	0	1
TAP	61	96	1
TAP	61	192	0
TAP	61	192	1
TAP	62	0	7
TAP	62	96	7
TAP	62	192	7
TAP	63	0	7
TAP	63	96	7
TAP	63	192	0
TAP	63	192	7
STR	64	0	0
SI_	64	0	0	96	288	4
BRK	65	192	5
TAP	66	0	5
TAP	66	96	5
TAP	66	192	5
TAP	67	0	5
TAP	67	96	5
TAP	67	192	4
TAP	67	192	5
TAP	68	0	2
TAP	68	96	2
TAP	68	192	2
TAP	69	0	2
TAP	69	96	2
TAP	69	192	2
TAP	69	192	3
TAP	70	0	4
TAP	70	96	4
TAP	70	192	4
TAP	71	0	4
TAP	71	96	4
TAP	71	192	3
TAP	71	192	4
TAP	72	0	3
TAP	72	96	4
TAP	72	192	3
HLD	73	0	2	192
HLD	73	0	5	192
TAP	74	0	1
TAP	74	192	1
TAP	75	0	0
TAP	75	192	0
TAP	76	0	7
TAP	76	96	7
TAP	76	192	0
TAP	76	192	7
TAP	77	0	0
TAP	77	96	0
TAP	77	192	0
TAP	77	192	7
TAP	78	0	6
TAP	78	192	6
TAP	78	192	7
TAP	79	0	1
TAP	79	192	0
TAP	79	192	1
HLD	80	0	7	192
STR	81	0	0
SI_	81	0	0	96	240	4

T_REC_TAP	174
T_REC_BRK	4
T_REC_XTP	0
T_REC_HLD	9
T_REC_XHO	0
T_REC_STR	6
T_REC_BST	0
T_REC_XST	0
T_REC_TTP	0
T_REC_THO	0
T_REC_SLD	6
T_REC_ALL	199
T_NUM_TAP	180
T_NUM_BRK	4
T_NUM_HLD	9
T_NUM_SLD	6
T_NUM_ALL	199
T_JUDGE_TAP	184
T_JUDGE_HLD	36
T_JUDGE_SLD	6
T_JUDGE_ALL	226
TTM_EACHPAIRS	22
TTM_SCR_TAP	90000
TTM_SCR_BRK	10400
TTM_SCR_HLD	9000
TTM_SCR_SLD	9000
TTM_SCR_ALL	118400
TTM_SCR_S	114500
TTM_SCR_SS	118000
TTM_RAT_ACV	10033

