VERSION	0.00.00	1.03.00
FES_MODE	0
BPM_DEF	176.000	185.000	185.000	176.000
MET_DEF	4	4
RESOLUTION	384
CLK_DEF	384
COMPATIBLE_CODE	MA2

BPM	0	0	176.000
BPM	9	0	185.000

BST	3	0	0
SI_	3	0	0	96	480	4
BST	3	0	6
SI_	3	0	6	96	480	2
BST	5	0	1
SI_	5	0	1	96	480	5
BST	5	0	7
SI_	5	0	7	96	480	3
BST	7	0	3
SI_	7	0	3	96	480	7
BST	7	0	4
SI_	7	0	4	96	480	0
BST	9	0	1
SI_	9	0	1	96	48	4
BST	9	0	6
SI_	9	0	6	96	48	3
TAP	9	192	2
TAP	9	216	5
TAP	9	240	2
TAP	9	264	5
TAP	9	288	1
TAP	9	288	6
STR	10	0	7
SI_	10	0	7	96	48	3
TAP	10	96	1
STR	10	144	1
SCR	10	144	1	96	48	4
TAP	10	240	5
TAP	10	288	5
STR	11	0	6
SI_	11	0	6	96	48	2
TAP	11	96	0
STR	11	144	0
SCR	11	144	0	96	48	3
TAP	11	240	4
TAP	11	288	4
STR	12	0	5
SI_	12	0	5	96	48	1
TAP	12	96	7
STR	12	144	7
SCR	12	144	7	96	48	2
TAP	12	240	3
TAP	12	288	3
TAP	13	0	1
TAP	13	0	6
TAP	13	192	3
TAP	13	216	4
TAP	13	240	3
TAP	13	264	4
TAP	13	288	2
TAP	13	288	5
TAP	14	0	7
TAP	14	48	0
TAP	14	48	6
TAP	14	96	1
TAP	14	96	5
TAP	14	144	2
TAP	14	144	4
TAP	14	192	3
TAP	14	240	6
TAP	14	264	4
TAP	14	288	6
TAP	14	336	7
TAP	15	0	0
TAP	15	48	1
TAP	15	48	7
TAP	15	96	2
TAP	15	96	6
TAP	15	144	3
TAP	15	144	5
TAP	15	192	4
TAP	15	240	1
TAP	15	264	3
TAP	15	288	1
TAP	15	336	0
TAP	16	0	7
TAP	16	48	0
TAP	16	48	6
TAP	16	96	1
TAP	16	96	5
TAP	16	144	2
TAP	16	144	4
TAP	16	192	3
TAP	16	240	6
TAP	16	264	4
TAP	16	288	6
TAP	16	336	0
TAP	16	336	7
TAP	17	0	2
TAP	17	24	3
TAP	17	48	2
TAP	17	72	3
TAP	17	96	1
TAP	17	120	4
TAP	17	144	1
TAP	17	168	4
BRK	17	192	0
BRK	17	192	5
BRK	17	240	1
BRK	17	240	6
BRK	17	288	2
BRK	17	288	7
TAP	18	0	3
TAP	18	48	2
TAP	18	48	4
TAP	18	96	1
TAP	18	96	5
TAP	18	144	0
TAP	18	144	6
TAP	18	192	7
TAP	18	240	1
TAP	18	264	0
TAP	18	288	1
TAP	18	336	3
TAP	19	0	4
TAP	19	48	3
TAP	19	48	5
TAP	19	96	2
TAP	19	96	6
TAP	19	144	1
TAP	19	144	7
TAP	19	192	0
TAP	19	240	6
TAP	19	264	7
TAP	19	288	6
TAP	19	336	4
TAP	20	0	3
TAP	20	48	2
TAP	20	48	4
TAP	20	96	1
TAP	20	96	5
TAP	20	144	0
TAP	20	144	6
TAP	20	192	7
TAP	20	240	2
TAP	20	264	5
TAP	20	288	2
TAP	20	336	1
TAP	20	336	6
BST	21	0	0
SI_	21	0	0	96	48	3
BST	21	0	7
SI_	21	0	7	96	48	4
BRK	21	96	0
BRK	21	96	7
TAP	21	192	6
TAP	21	216	1
TAP	21	240	6
TAP	21	288	2
TAP	21	288	5
TAP	21	336	3
TAP	22	0	4
TAP	22	0	6
TAP	22	48	5
TAP	22	96	1
TAP	22	96	3
TAP	22	144	2
HLD	22	192	6	48
HLD	22	240	4	48
HLD	22	288	3	48
TAP	22	336	1
TAP	23	0	1
TAP	23	0	7
TAP	23	48	2
TAP	23	96	0
TAP	23	96	6
TAP	23	144	5
TAP	23	192	2
TAP	23	216	3
TAP	23	240	2
TAP	23	288	5
TAP	23	312	4
TAP	23	336	5
TAP	24	0	1
TAP	24	24	3
TAP	24	48	1
TAP	24	96	6
TAP	24	120	4
TAP	24	144	6
TAP	24	192	1
TAP	24	216	4
TAP	24	240	1
TAP	24	288	6
TAP	24	312	3
TAP	24	336	6
TAP	25	0	3
TAP	25	24	4
TAP	25	48	2
TAP	25	72	5
TAP	25	96	1
TAP	25	120	6
TAP	25	144	0
TAP	25	168	7
BRK	25	192	1
TAP	25	208	2
TAP	25	224	3
TAP	25	240	6
TAP	25	256	5
TAP	25	272	4
TAP	25	288	0
TAP	25	304	1
TAP	25	320	2
TAP	25	336	7
TAP	25	352	6
TAP	25	368	5
HLD	26	0	0	384
TAP	26	192	2
HLD	27	0	2	384
HLD	28	0	4	384
TAP	28	192	6
HLD	29	0	6	96
TAP	29	96	4
TAP	29	192	3
TAP	29	216	4
TAP	29	240	3
TAP	29	264	4
TAP	29	288	3
TAP	29	312	4
TAP	29	336	3
TAP	29	360	4
TAP	30	0	2
TAP	30	24	3
TAP	30	48	2
TAP	30	72	3
TAP	30	96	1
TAP	30	120	4
TAP	30	144	1
TAP	30	168	4
TAP	30	192	0
TAP	30	216	5
TAP	30	240	0
TAP	30	264	5
TAP	30	288	6
TAP	30	288	7
TAP	30	336	0
TAP	30	336	5
TAP	31	0	5
TAP	31	24	4
TAP	31	48	5
TAP	31	72	4
TAP	31	96	6
TAP	31	120	3
TAP	31	144	6
TAP	31	168	3
TAP	31	192	7
TAP	31	216	2
TAP	31	240	7
TAP	31	264	2
TAP	31	288	0
TAP	31	288	1
TAP	31	336	2
TAP	31	336	7
TAP	32	0	3
TAP	32	24	4
TAP	32	48	3
TAP	32	72	4
TAP	32	96	2
TAP	32	120	5
TAP	32	144	2
TAP	32	168	5
TAP	32	192	1
TAP	32	216	6
TAP	32	240	1
TAP	32	264	6
TAP	32	288	0
TAP	32	288	7
TAP	32	336	1
TAP	32	336	6
TAP	33	0	7
TAP	33	24	0
TAP	33	48	6
TAP	33	72	1
TAP	33	96	5
TAP	33	120	2
TAP	33	144	4
TAP	33	168	3
BRK	33	192	2
BRK	33	192	5
BRK	33	264	1
BRK	33	264	3
BRK	33	336	4
BRK	33	336	6
STR	34	0	7
SI_	34	0	7	96	48	2
TAP	34	48	7
STR	34	96	1
SI_	34	96	1	96	48	4
TAP	34	144	1
STR	34	192	5
SI_	34	192	5	96	48	0
TAP	34	240	5
STR	34	288	3
SI_	34	288	3	96	48	7
TAP	34	336	3
STR	35	0	6
SI_	35	0	6	96	48	2
TAP	35	48	6
STR	35	96	1
SI_	35	96	1	96	48	5
TAP	35	144	1
STR	35	192	7
SI_	35	192	7	96	48	3
TAP	35	240	7
BRK	35	288	3
BST	35	288	7
SCR	35	288	7	96	48	2
TAP	36	0	4
STR	36	0	7
SCL	36	0	7	96	48	4
TAP	36	96	2
STR	36	96	7
SCR	36	96	7	96	48	2
TAP	36	192	4
STR	36	192	7
SCL	36	192	7	96	48	4
TAP	36	288	2
TAP	36	288	7
TAP	37	0	0
TAP	37	0	1
TAP	37	48	2
TAP	37	96	6
TAP	37	96	7
TAP	37	144	5
BRK	37	192	0
BRK	37	192	7
TAP	37	240	3
TAP	37	240	4
BRK	37	288	1
BRK	37	288	6
STR	38	0	0
SI_	38	0	0	96	48	5
TAP	38	48	0
STR	38	96	6
SI_	38	96	6	96	48	3
TAP	38	144	6
STR	38	192	2
SI_	38	192	2	96	48	7
TAP	38	240	2
STR	38	288	4
SI_	38	288	4	96	48	0
TAP	38	336	4
STR	39	0	1
SI_	39	0	1	96	48	5
TAP	39	48	1
STR	39	96	6
SI_	39	96	6	96	48	2
TAP	39	144	6
STR	39	192	0
SI_	39	192	0	96	48	4
TAP	39	240	0
BST	39	288	0
SCL	39	288	0	96	48	5
BRK	39	288	4
STR	40	0	0
SCR	40	0	0	96	48	3
TAP	40	0	3
STR	40	96	0
SCL	40	96	0	96	48	5
TAP	40	96	5
STR	40	192	0
SCR	40	192	0	96	48	3
TAP	40	192	3
TAP	40	288	0
TAP	40	288	5
TAP	41	0	6
TAP	41	0	7
TAP	41	48	5
TAP	41	96	0
TAP	41	96	1
TAP	41	144	2
TAP	41	192	7
TAP	41	216	0
TAP	41	240	7
TAP	41	264	0
TAP	41	288	6
TAP	41	312	1
TAP	41	336	6
TAP	41	360	1
STR	42	0	7
SCL	42	0	7	96	48	4
TAP	42	48	7
STR	42	96	1
SCR	42	96	1	96	48	4
TAP	42	144	1
STR	42	192	5
SCR	42	192	5	96	48	0
TAP	42	240	5
STR	42	288	3
SCL	42	288	3	96	48	0
TAP	42	336	3
STR	43	0	6
SUL	43	0	6	96	48	2
TAP	43	48	6
STR	43	96	1
SUR	43	96	1	96	48	5
TAP	43	144	1
STR	43	192	7
SI_	43	192	7	96	48	3
TAP	43	240	7
BRK	43	288	3
BST	43	288	7
SCR	43	288	7	96	48	2
TAP	44	0	4
STR	44	0	7
SCL	44	0	7	96	48	4
TAP	44	96	2
STR	44	96	7
SCR	44	96	7	96	48	2
TAP	44	192	4
STR	44	192	7
SCL	44	192	7	96	48	4
TAP	44	288	2
TAP	44	288	7
TAP	45	0	0
TAP	45	0	1
TAP	45	48	3
TAP	45	96	6
TAP	45	96	7
TAP	45	144	4
TAP	45	192	0
TAP	45	216	7
TAP	45	240	0
TAP	45	264	7
TAP	45	288	1
TAP	45	288	6
TAP	46	0	3
TAP	46	0	4
TAP	46	48	2
TAP	46	72	3
TAP	46	96	1
TAP	46	120	4
TAP	46	144	0
TAP	46	168	5
TAP	46	192	6
TAP	46	192	7
TAP	46	240	5
TAP	46	288	0
TAP	46	288	1
TAP	46	336	2
TAP	47	0	3
TAP	47	0	4
TAP	47	48	5
TAP	47	72	4
TAP	47	96	6
TAP	47	120	3
TAP	47	144	7
TAP	47	168	2
TAP	47	192	0
TAP	47	192	1
TAP	47	240	2
TAP	47	288	6
TAP	47	288	7
TAP	47	336	5
TAP	48	0	3
TAP	48	0	4
TAP	48	48	4
TAP	48	72	3
TAP	48	96	5
TAP	48	120	2
TAP	48	144	6
TAP	48	168	1
TAP	48	192	0
TAP	48	192	7
TAP	48	240	2
TAP	48	240	3
TAP	48	288	0
TAP	48	288	7
TAP	48	336	4
TAP	48	336	5
TAP	49	0	0
TAP	49	24	1
TAP	49	48	2
TAP	49	72	3
TAP	49	96	7
TAP	49	120	6
TAP	49	144	5
TAP	49	168	4
TAP	49	192	0
TAP	49	204	1
TAP	49	216	2
TAP	49	228	3
TAP	49	240	4
TAP	49	252	5
TAP	49	264	6
TAP	49	276	7
BRK	49	288	0
BRK	49	288	4
HLD	50	0	4	144
HLD	50	144	3	144
TAP	50	288	4
HLD	51	48	5	144
TAP	51	192	4
TAP	51	288	3
TAP	51	288	4
HLD	52	0	2	144
HLD	52	144	3	144
TAP	52	288	4
TAP	53	0	1
TAP	53	0	6
TAP	53	288	0
TAP	53	312	7
TAP	53	336	0
TAP	53	360	7
STR	54	0	0
SCL	54	0	0	96	48	5
TAP	54	48	1
TAP	54	96	2
STR	54	144	3
SCL	54	144	3	96	48	0
TAP	54	192	4
TAP	54	240	5
STR	54	288	6
SCL	54	288	6	96	48	3
TAP	54	336	7
TAP	55	0	0
STR	55	48	1
SCR	55	48	1	96	48	4
TAP	55	96	0
TAP	55	144	7
TAP	55	192	6
TAP	55	216	3
TAP	55	240	5
TAP	55	264	2
TAP	55	288	4
TAP	55	312	1
TAP	55	336	3
STR	56	0	7
SCR	56	0	7	96	48	2
TAP	56	48	6
TAP	56	96	5
STR	56	144	4
SCR	56	144	4	96	48	7
TAP	56	192	3
TAP	56	240	2
STR	56	288	1
SCR	56	288	1	96	48	4
TAP	56	336	0
TAP	57	0	7
STR	57	48	6
SCL	57	48	6	96	48	3
TAP	57	96	7
TAP	57	144	0
TAP	57	192	1
TAP	57	216	4
TAP	57	240	2
TAP	57	264	5
TAP	57	288	3
TAP	57	312	6
TAP	57	336	4
BST	58	0	0
SUL	58	0	0	96	48	4
TAP	58	48	1
TAP	58	96	2
STR	58	144	3
SUL	58	144	3	96	48	7
TAP	58	192	4
TAP	58	240	5
STR	58	288	6
SUL	58	288	6	96	48	2
TAP	58	336	7
TAP	59	0	0
STR	59	48	1
SUR	59	48	1	96	36	5
TAP	59	96	0
TAP	59	144	7
TAP	59	192	6
TAP	59	216	7
TAP	59	240	5
TAP	59	264	0
TAP	59	288	4
TAP	59	312	1
TAP	59	336	3
HLD	60	0	1	144
TAP	60	48	4
TAP	60	96	4
HLD	60	144	6	144
TAP	60	192	3
TAP	60	240	3
HLD	60	288	1	96
TAP	60	336	4
HLD	61	0	5	144
TAP	61	48	3
TAP	61	96	3
HLD	61	144	2	144
TAP	61	192	4
TAP	61	240	4
HLD	61	288	5	96
TAP	61	336	3
STR	62	0	1
SCR	62	0	1	96	48	4
TAP	62	48	4
TAP	62	96	5
TAP	62	144	6
TAP	62	192	7
TAP	62	240	0
TAP	62	240	6
TAP	62	288	1
TAP	62	288	5
STR	63	0	6
SCL	63	0	6	96	48	3
TAP	63	48	3
TAP	63	96	2
TAP	63	144	1
TAP	63	192	0
TAP	63	240	1
TAP	63	240	7
TAP	63	288	2
TAP	63	288	6
TAP	64	0	4
TAP	64	0	5
TAP	64	48	1
TAP	64	96	2
TAP	64	96	3
TAP	64	144	6
STR	64	192	3
SI_	64	192	3	96	48	0
STR	64	192	4
SI_	64	192	4	96	48	7
TAP	64	240	2
TAP	64	240	5
TAP	64	288	3
TAP	64	288	4
TAP	65	0	1
TAP	65	24	0
TAP	65	48	1
TAP	65	72	0
TAP	65	96	2
TAP	65	120	7
TAP	65	144	2
TAP	65	168	7
TAP	65	192	3
TAP	65	216	6
TAP	65	240	3
TAP	65	264	6
TAP	65	288	4
TAP	65	312	5
TAP	65	336	4
TAP	65	360	5
TAP	66	0	7
TAP	66	24	6
TAP	66	48	7
TAP	66	72	6
TAP	66	96	0
TAP	66	120	5
TAP	66	144	0
TAP	66	168	5
TAP	66	192	1
TAP	66	216	4
TAP	66	240	1
TAP	66	264	4
TAP	66	288	2
TAP	66	312	3
TAP	66	336	2
TAP	66	360	3
TAP	67	0	0
TAP	67	24	7
TAP	67	48	1
TAP	67	72	6
TAP	67	96	2
TAP	67	120	5
TAP	67	144	3
TAP	67	168	4
TAP	67	192	3
BRK	67	264	0
BRK	67	264	7
BRK	67	312	1
BRK	67	312	6
BRK	67	336	1
BRK	67	336	6
STR	68	0	7
SI_	68	0	7	96	48	2
TAP	68	48	7
STR	68	96	1
SI_	68	96	1	96	48	4
TAP	68	96	7
TAP	68	144	1
TAP	68	192	1
STR	68	192	5
SI_	68	192	5	96	48	0
TAP	68	240	5
STR	68	288	3
SI_	68	288	3	96	48	7
TAP	68	288	5
TAP	68	336	3
TAP	69	0	3
STR	69	0	6
SI_	69	0	6	96	48	2
TAP	69	48	6
STR	69	96	1
SI_	69	96	1	96	48	5
TAP	69	96	6
TAP	69	144	1
TAP	69	192	1
STR	69	192	7
SI_	69	192	7	96	48	3
TAP	69	240	7
BRK	69	288	2
BRK	69	288	7
TAP	70	0	0
HLD	70	0	5	48
TAP	70	16	1
TAP	70	32	2
TAP	70	48	3
TAP	70	96	0
HLD	70	96	3	48
TAP	70	112	7
TAP	70	128	6
TAP	70	144	5
TAP	70	192	0
HLD	70	192	5	48
TAP	70	208	1
TAP	70	224	2
TAP	70	240	3
TAP	70	288	0
HLD	70	288	3	48
TAP	70	304	7
TAP	70	320	6
TAP	70	336	5
TAP	71	0	1
TAP	71	0	3
TAP	71	48	6
TAP	71	72	7
TAP	71	96	5
TAP	71	120	0
TAP	71	144	4
TAP	71	168	1
BRK	71	192	2
BRK	71	192	3
TAP	71	240	6
TAP	71	240	7
BRK	71	288	1
BRK	71	288	5
STR	72	0	0
SI_	72	0	0	96	48	5
TAP	72	48	0
TAP	72	96	0
STR	72	96	6
SI_	72	96	6	96	48	3
TAP	72	144	6
STR	72	192	2
SI_	72	192	2	96	48	7
TAP	72	192	6
TAP	72	240	2
TAP	72	288	2
STR	72	288	4
SI_	72	288	4	96	48	0
TAP	72	336	4
STR	73	0	1
SI_	73	0	1	96	48	5
TAP	73	0	4
TAP	73	48	1
TAP	73	96	1
STR	73	96	6
SI_	73	96	6	96	48	2
TAP	73	144	6
STR	73	192	0
SI_	73	192	0	96	48	4
TAP	73	192	6
TAP	73	240	0
BRK	73	288	0
BRK	73	288	5
HLD	74	0	2	48
TAP	74	0	7
TAP	74	16	6
TAP	74	32	5
TAP	74	48	4
HLD	74	96	4	48
TAP	74	96	7
TAP	74	112	0
TAP	74	128	1
TAP	74	144	2
HLD	74	192	2	48
TAP	74	192	7
TAP	74	208	6
TAP	74	224	5
TAP	74	240	4
HLD	74	288	4	48
TAP	74	288	7
TAP	74	304	0
TAP	74	320	1
TAP	74	336	2
TAP	75	0	4
TAP	75	0	6
TAP	75	48	7
TAP	75	96	1
TAP	75	96	3
TAP	75	144	0
BRK	75	192	7
TAP	75	208	6
TAP	75	224	5
TAP	75	240	0
TAP	75	256	1
TAP	75	272	2
TAP	75	288	6
TAP	75	304	5
TAP	75	320	4
TAP	75	336	1
TAP	75	352	2
TAP	75	368	3
STR	76	0	7
SI_	76	0	7	96	48	3
TAP	76	48	7
STR	76	96	6
SI_	76	96	6	96	48	2
TAP	76	144	6
STR	76	192	5
SI_	76	192	5	96	48	1
TAP	76	240	5
STR	76	288	4
SI_	76	288	4	96	48	0
TAP	76	336	4
STR	77	0	3
SI_	77	0	3	96	48	7
TAP	77	48	3
STR	77	96	2
SI_	77	96	2	96	48	6
TAP	77	144	2
STR	77	192	1
SI_	77	192	1	96	48	5
TAP	77	240	1
BRK	77	288	0
TAP	78	0	1
HLD	78	0	6	48
TAP	78	16	2
TAP	78	32	3
TAP	78	48	4
HLD	78	96	1	48
TAP	78	96	6
TAP	78	112	5
TAP	78	128	4
TAP	78	144	3
TAP	78	192	0
HLD	78	192	5	48
TAP	78	208	1
TAP	78	224	2
TAP	78	240	3
HLD	78	288	2	48
TAP	78	288	7
TAP	78	304	6
TAP	78	320	5
TAP	78	336	4
BRK	79	0	0
BRK	79	0	1
TAP	79	48	3
TAP	79	48	4
BRK	79	96	6
BRK	79	96	7
TAP	79	144	3
TAP	79	144	4
TAP	79	192	0
TAP	79	216	7
TAP	79	240	0
TAP	79	264	7
TAP	79	288	1
TAP	79	288	6
BRK	80	0	3
BRK	80	0	4
TAP	80	48	2
TAP	80	72	4
TAP	80	96	2
TAP	80	120	5
TAP	80	144	2
TAP	80	168	6
TAP	80	192	3
TAP	80	192	7
TAP	80	240	5
TAP	80	288	0
TAP	80	288	4
TAP	80	336	2
BRK	81	0	3
BRK	81	0	4
TAP	81	48	5
TAP	81	72	3
TAP	81	96	5
TAP	81	120	2
TAP	81	144	5
TAP	81	168	1
TAP	81	192	0
TAP	81	192	4
TAP	81	240	2
TAP	81	288	3
TAP	81	288	7
TAP	81	336	5
BRK	82	0	3
BRK	82	0	4
TAP	82	48	1
TAP	82	72	5
TAP	82	96	2
TAP	82	120	6
TAP	82	144	3
TAP	82	168	7
TAP	82	192	4
TAP	82	216	0
TAP	82	240	3
TAP	82	264	7
TAP	82	288	2
TAP	82	312	6
TAP	82	336	1
TAP	82	360	5
TAP	83	0	0
TAP	83	24	1
TAP	83	48	2
TAP	83	72	3
TAP	83	96	7
TAP	83	120	6
TAP	83	144	5
TAP	83	168	4
BRK	83	192	0
TAP	83	204	1
TAP	83	216	2
TAP	83	228	3
TAP	83	240	4
TAP	83	252	5
TAP	83	264	6
TAP	83	276	7
TAP	83	288	0
TAP	83	300	1
TAP	83	312	2
TAP	83	324	3
TAP	83	336	4
TAP	83	348	5
TAP	83	360	6
TAP	83	372	7
BST	84	0	0
SI_	84	0	0	96	48	3
SCR	84	0	0	96	48	3
BRK	84	0	4
TAP	84	96	0
BST	84	192	0
SI_	84	192	0	96	48	5
SCL	84	192	0	96	48	5
TAP	84	288	0
BST	85	0	0
SI_	85	0	0	96	48	4
BST	85	96	0
SCL	85	96	0	96	48	5
SCR	85	96	0	96	48	3
BST	85	192	0
SF_	85	192	0	96	48	4
BRK	85	288	0
TAP	86	0	7
TAP	86	24	0
TAP	86	48	6
TAP	86	72	1
TAP	86	96	5
TAP	86	120	2
TAP	86	144	4
TAP	86	168	3
TAP	86	192	4
TAP	86	216	3
TAP	86	240	5
TAP	86	264	2
TAP	86	288	6
TAP	86	312	1
TAP	86	336	7
TAP	86	360	0
TAP	87	0	7
TAP	87	24	6
TAP	87	48	5
TAP	87	72	4
TAP	87	96	0
TAP	87	120	1
TAP	87	144	2
TAP	87	168	3
BRK	87	192	7
TAP	87	204	6
TAP	87	216	5
TAP	87	228	4
TAP	87	240	3
TAP	87	252	2
TAP	87	264	1
TAP	87	276	0
TAP	87	288	7
TAP	87	300	6
TAP	87	312	5
TAP	87	324	4
TAP	87	336	3
TAP	87	348	2
TAP	87	360	1
TAP	87	372	0
BRK	88	0	3
BRK	88	0	7
TAP	88	96	3
TAP	88	96	4
BRK	88	144	1
BRK	88	144	6
TAP	88	240	7
TAP	88	288	0
TAP	88	288	6
TAP	88	336	1
TAP	88	336	5
TAP	89	0	2
TAP	89	0	4
TAP	89	48	5
TAP	89	72	4
STR	89	96	6
SI_	89	96	6	96	24	4
TAP	89	144	6
STR	89	192	7
SI_	89	192	7	96	24	3
TAP	89	240	7
STR	89	288	4
SI_	89	288	4	96	24	0
TAP	89	336	4
TAP	90	0	2
TAP	90	48	2
TAP	90	72	3
STR	90	96	1
SI_	90	96	1	96	24	3
TAP	90	144	1
STR	90	192	0
SI_	90	192	0	96	24	4
TAP	90	240	0
STR	90	288	3
SI_	90	288	3	96	24	7
TAP	90	336	3
TAP	91	0	5
TAP	91	48	6
TAP	91	72	7
TAP	91	96	5
TAP	91	120	0
TAP	91	144	4
TAP	91	168	1
TAP	91	192	2
TAP	91	192	3
TAP	91	240	6
TAP	91	240	7
TAP	91	288	1
TAP	91	288	5
STR	92	0	1
SI_	92	0	1	96	48	4
TAP	92	24	0
TAP	92	48	2
TAP	92	72	7
TAP	92	96	1
STR	92	144	6
SI_	92	144	6	96	48	3
TAP	92	168	7
TAP	92	192	5
TAP	92	216	0
TAP	92	240	6
TAP	92	288	0
TAP	92	336	1
TAP	93	0	5
TAP	93	24	3
TAP	93	48	5
TAP	93	72	3
TAP	93	96	6
TAP	93	120	2
TAP	93	144	6
TAP	93	168	2
STR	93	192	7
SI_	93	192	7	96	24	3
STR	93	240	1
SI_	93	240	1	96	24	5
TAP	93	288	7
TAP	93	336	1
TAP	94	0	6
TAP	94	24	7
TAP	94	48	6
TAP	94	72	0
TAP	94	96	6
TAP	94	120	1
TAP	94	144	6
TAP	94	168	2
TAP	94	192	3
TAP	94	192	7
TAP	94	240	2
TAP	94	240	6
TAP	94	288	1
TAP	94	288	5
TAP	94	336	0
TAP	94	336	4
TAP	95	0	1
TAP	95	24	0
TAP	95	48	1
TAP	95	72	7
TAP	95	96	1
TAP	95	120	6
TAP	95	144	1
TAP	95	168	5
TAP	95	192	0
TAP	95	192	4
TAP	95	240	1
TAP	95	240	5
TAP	95	288	2
TAP	95	288	6
TAP	95	336	3
TAP	95	336	7
TAP	96	0	3
TAP	96	24	7
TAP	96	48	2
TAP	96	72	6
TAP	96	96	1
TAP	96	120	5
TAP	96	144	0
TAP	96	168	4
BST	96	192	0
SI_	96	192	0	96	24	4
BST	96	240	6
SI_	96	240	6	96	24	2
BRK	96	288	0
BRK	96	336	6
TAP	97	0	0
TAP	97	24	4
TAP	97	48	1
TAP	97	72	5
TAP	97	96	2
TAP	97	120	6
TAP	97	144	3
TAP	97	168	7
BST	97	192	3
SI_	97	192	3	96	24	7
BST	97	240	5
SI_	97	240	5	96	24	1
BRK	97	288	3
BRK	97	336	5
TAP	98	0	0
TAP	98	24	7
TAP	98	48	1
TAP	98	72	6
TAP	98	96	2
TAP	98	120	5
TAP	98	144	3
TAP	98	168	4
TAP	98	192	3
TAP	98	216	4
TAP	98	240	2
TAP	98	264	5
TAP	98	288	1
TAP	98	312	6
TAP	98	336	0
TAP	98	360	7
BRK	99	0	0
TAP	99	16	1
TAP	99	32	2
TAP	99	48	7
TAP	99	64	6
TAP	99	80	5
TAP	99	96	1
TAP	99	112	2
TAP	99	128	3
TAP	99	144	6
TAP	99	160	5
TAP	99	176	4
BRK	99	192	0
TAP	99	204	1
TAP	99	216	2
TAP	99	228	3
TAP	99	240	4
TAP	99	252	5
TAP	99	264	6
TAP	99	276	7
TAP	99	288	0
TAP	99	300	1
TAP	99	312	2
TAP	99	324	3
TAP	99	336	4
TAP	99	348	5
TAP	99	360	6
TAP	99	372	7
TAP	100	0	0
TAP	100	0	4
BST	100	96	0
SI_	100	96	0	96	1488	4
BRK	100	96	1
BST	100	144	6
SI_	100	144	6	96	1440	2
BRK	100	144	7

T_REC_TAP	856
T_REC_BRK	66
T_REC_XTP	0
T_REC_HLD	30
T_REC_XHO	0
T_REC_STR	82
T_REC_BST	25
T_REC_XST	0
T_REC_TTP	0
T_REC_THO	0
T_REC_SLD	110
T_REC_ALL	1169
T_NUM_TAP	938
T_NUM_BRK	91
T_NUM_HLD	30
T_NUM_SLD	110
T_NUM_ALL	1169
T_JUDGE_TAP	1029
T_JUDGE_HLD	72
T_JUDGE_SLD	110
T_JUDGE_ALL	1211
TTM_EACHPAIRS	162
TTM_SCR_TAP	469000
TTM_SCR_BRK	236600
TTM_SCR_HLD	30000
TTM_SCR_SLD	165000
TTM_SCR_ALL	900600
TTM_SCR_S	864800
TTM_SCR_SS	891500
TTM_RAT_ACV	10102

